Featured TV Shows


Batwoman S01E08

Posted By: Tavaz
1080p (FullHD) / WEBRip IMDb
Batwoman S01E08

Batwoman S01E08
WEB-DL | MKV | 1920x960 | German / English | H264 @ 5520 kbps | E-AC-3 @ 640 kbps | 41 min 48 s | 1.99 GiB
Subtitles: German, English
Genre: Mystery, Krimi


In der Serie geht es um Kate Kane, die als lesbische und hochqualifizierte Straßenkämpferin, darauf vorbereitet ist, das kriminelle Wiederaufleben der Stadt Gotham zu bekämpfen.

batwoman.s01e08.german.dl.1080p.web.h264-wayne.mkv (2.0 GB)



General
Unique ID : 155164793626994817245307884028262725512 (0x74BBA6F8F1C1B29BE4A624A1D9F1B788)
Complete name : ./batwoman.s01e08.german.dl.1080p.web.h264-wayne.mkv
Format : Matroska
Format version : Version 4 / Version 2
File size : 1.99 GiB
Duration : 41 min 48 s
Overall bit rate : 6 803 kb/s
Encoded date : UTC 2019-12-19 23:21:21
Writing application : mkvmerge v9.8.0 ('Kuglblids') 64bit
Writing library : libebml v1.3.9 + libmatroska v1.4.5

Video
ID : 1
Format : AVC
Format/Info : Advanced Video Codec
Format profile : High@L4
Format settings : CABAC / 4 Ref Frames
Format settings, CABAC : Yes
Format settings, RefFrames : 4 frames
Codec ID : V_MPEG4/ISO/AVC
Duration : 41 min 48 s
Bit rate mode : Constant
Bit rate : 5 521 kb/s
Nominal bit rate : 10 000 kb/s
Width : 1 920 pixels
Height : 960 pixels
Display aspect ratio : 2.000
Frame rate mode : Constant
Frame rate : 23.976 (24000/1001) FPS
Color space : YUV
Chroma subsampling : 4:2:0
Bit depth : 8 bits
Scan type : Progressive
Bits/(Pixel*Frame) : 0.125
Stream size : 1.61 GiB (81%)
Default : Yes
Forced : No
Color range : Limited
Color primaries : BT.709
Transfer characteristics : BT.709
Matrix coefficients : BT.709

Audio #1
ID : 2
Format : E-AC-3
Format/Info : Enhanced Audio Coding 3
Format settings, Endianness : Big
Codec ID : A_EAC3
Duration : 41 min 48 s
Bit rate mode : Constant
Bit rate : 640 kb/s
Channel(s) : 6 channels
Channel positions : Front: L C R, Side: L R, LFE
Sampling rate : 48.0 kHz
Frame rate : 187.500 FPS (256 SPF)
Compression mode : Lossy
Stream size : 191 MiB (9%)
Language : German
Service kind : Complete Main
Default : Yes
Forced : No

Audio #2
ID : 3
Format : E-AC-3
Format/Info : Enhanced Audio Coding 3
Format settings, Endianness : Big
Codec ID : A_EAC3
Duration : 41 min 48 s
Bit rate mode : Constant
Bit rate : 640 kb/s
Channel(s) : 6 channels
Channel positions : Front: L C R, Side: L R, LFE
Sampling rate : 48.0 kHz
Frame rate : 187.500 FPS (256 SPF)
Compression mode : Lossy
Stream size : 191 MiB (9%)
Language : English
Service kind : Complete Main
Default : No
Forced : No

Text #1
ID : 4
Format : UTF-8
Codec ID : S_TEXT/UTF8
Codec ID/Info : UTF-8 Plain Text
Duration : 40 min 19 s
Bit rate : 70 b/s
Count of elements : 529
Stream size : 21.0 KiB (0%)
Title : German
Language : German
Default : No
Forced : No

Text #2
ID : 5
Format : UTF-8
Codec ID : S_TEXT/UTF8
Codec ID/Info : UTF-8 Plain Text
Duration : 40 min 19 s
Bit rate : 65 b/s
Count of elements : 516
Stream size : 19.4 KiB (0%)
Title : English
Language : English
Default : No
Forced : No





Batwoman S01E08


Batwoman S01E08


Batwoman S01E08


Batwoman S01E08


Batwoman S01E08

All episodes