Featured TV Shows


Big Shot S01E10

Posted By: Tavaz
1080p (FullHD) / WEBRip IMDb
Big Shot S01E10

Big Shot S01E10
WEBRip | MKV | 1920x1080 | Français / English | H264 @ 5676 kbps | E-AC-3 @ 256 kbps | 53 min 6 s | 2.49 GiB
Subtitles: Français, English
Genre: Family, Comedy, Drama


After getting ousted from his job in the NCAA for throwing a chair at a referee, a hothead men’s basketball coach Marvyn Korn must take a job at Westbrook School for Girls, a private all-girls high school, in an effort to redeem what's left of his career and reputation.

3f1987ba88e94571bb39f3896a6bc9a7.mkv (2.5 GB)



General
Unique ID : 336235401442617862506138347932717751053 (0xFCF4953263D5CF044A7D17108C751B0D)
Complete name : ./3f1987ba88e94571bb39f3896a6bc9a7.mkv
Format : Matroska
Format version : Version 4 / Version 2
File size : 2.49 GiB
Duration : 53 min 6 s
Overall bit rate mode : Variable
Overall bit rate : 6 702 kb/s
Encoded date : UTC 2021-06-18 07:28:27
Writing application : mkvmerge v58.0.0 ('Supper's Ready') 64-bit
Writing library : libebml v1.4.2 + libmatroska v1.6.4

Video
ID : 1
Format : AVC
Format/Info : Advanced Video Codec
Format profile : High@L4
Format settings : CABAC / 4 Ref Frames
Format settings, CABAC : Yes
Format settings, RefFrames : 4 frames
Codec ID : V_MPEG4/ISO/AVC
Duration : 53 min 5 s
Bit rate mode : Variable
Bit rate : 5 676 kb/s
Maximum bit rate : 12.7 Mb/s
Width : 1 920 pixels
Height : 1 080 pixels
Display aspect ratio : 16:9
Frame rate mode : Constant
Frame rate : 23.976 (24000/1001) FPS
Color space : YUV
Chroma subsampling : 4:2:0
Bit depth : 8 bits
Scan type : Progressive
Bits/(Pixel*Frame) : 0.114
Stream size : 2.11 GiB (85%)
Default : Yes
Forced : No
Color range : Limited
Color primaries : BT.709
Transfer characteristics : BT.709
Matrix coefficients : BT.709

Audio #1
ID : 2
Format : E-AC-3
Format/Info : Enhanced Audio Coding 3
Format settings, Endianness : Big
Codec ID : A_EAC3
Duration : 53 min 6 s
Bit rate mode : Constant
Bit rate : 256 kb/s
Channel(s) : 6 channels
Channel positions : Front: L C R, Side: L R, LFE
Sampling rate : 48.0 kHz
Frame rate : 187.500 FPS (256 SPF)
Compression mode : Lossy
Stream size : 97.2 MiB (4%)
Title : French
Language : French
Service kind : Complete Main
Default : Yes
Forced : No

Audio #2
ID : 3
Format : E-AC-3
Format/Info : Enhanced Audio Coding 3
Format profile : E-AC-3+Atmos / E-AC-3
Format settings, Endianness : Big
Codec ID : A_EAC3
Duration : 53 min 5 s
Bit rate mode : Constant
Bit rate : 768 kb/s
Channel(s) : 15 objects / 6 channels
Channel positions : 15 objects / Front: L C R, Side: L R, LFE
Sampling rate : 48.0 kHz
Frame rate : 187.500 FPS (256 SPF)
Compression mode : Lossy
Stream size : 292 MiB (11%)
Title : English
Language : English
Service kind : Complete Main
Default : No
Forced : No

Text #1
ID : 4
Format : UTF-8
Codec ID : S_TEXT/UTF8
Codec ID/Info : UTF-8 Plain Text
Duration : 28 min 3 s
Bit rate : 0 b/s
Count of elements : 6
Stream size : 119 Bytes (0%)
Title : French (Forced)
Language : French
Default : Yes
Forced : Yes

Text #2
ID : 5
Format : UTF-8
Codec ID : S_TEXT/UTF8
Codec ID/Info : UTF-8 Plain Text
Duration : 50 min 42 s
Bit rate : 78 b/s
Count of elements : 851
Stream size : 29.0 KiB (0%)
Title : French
Language : French
Default : No
Forced : No

Text #3
ID : 6
Format : UTF-8
Codec ID : S_TEXT/UTF8
Codec ID/Info : UTF-8 Plain Text
Duration : 49 min 34 s
Bit rate : 91 b/s
Count of elements : 921
Stream size : 33.3 KiB (0%)
Title : English (SDH)
Language : English
Default : No
Forced : No





Big Shot S01E10


Big Shot S01E10


Big Shot S01E10


Big Shot S01E10


Big Shot S01E10

All episodes