Billions S03E01

Posted By: Tavaz
1080p (FullHD) / WEB-DL IMDb
Billions S03E01

Billions S03E01
WEB-DL | MKV | 1920x1080 | Italian / English | H264 @ 4365 kbps | AC-3 @ 384 kbps | 56 min 37 s | 2.10 GiB
Subtitles: English, Italian
Genre: Drama

A complex drama about power politics in the world of New York high finance.

Shrewd, savvy U.S. Attorney Chuck Rhoades and the brilliant, ambitious hedge fund king Bobby "Axe" Axelrod are on an explosive collision course, with each using all of his considerable smarts, power and influence to outmaneuver the other. The stakes are in the billions in this timely, provocative series.

Billions.3x01.La.Cena.Delle.Idee.ITA-ENG.1080p.WEBMux.DD5.1.x264-NovaRip.mkv (2.1 GB)



General
Unique ID : 44372934768121870886216715691648575871 (0x2161EA97D0DE9693C4F206F47ACF697F)
Complete name : ./Billions.3x01.La.Cena.Delle.Idee.ITA-ENG.1080p.WEBMux.DD5.1.x264-NovaRip.mkv
Format : Matroska
Format version : Version 2
File size : 2.10 GiB
Duration : 56 min 37 s
Overall bit rate : 5 321 kb/s
Encoded date : UTC 2018-04-14 17:14:19
Writing application : mkvmerge v8.5.2 ('Crosses') 64bit
Writing library : libebml v1.3.3 + libmatroska v1.4.4

Video
ID : 1
Format : AVC
Format/Info : Advanced Video Codec
Format profile : High@L4.1
Format settings : CABAC / 4 Ref Frames
Format settings, CABAC : Yes
Format settings, RefFrames : 4 frames
Codec ID : V_MPEG4/ISO/AVC
Duration : 56 min 37 s
Bit rate : 4 365 kb/s
Width : 1 920 pixels
Height : 1 080 pixels
Display aspect ratio : 16:9
Frame rate mode : Constant
Frame rate : 25.000 FPS
Original frame rate : 23.976 (24000/1001) FPS
Color space : YUV
Chroma subsampling : 4:2:0
Bit depth : 8 bits
Scan type : Progressive
Bits/(Pixel*Frame) : 0.084
Stream size : 1.80 GiB (86%)
Writing library : x264 core 133 r2334 a3ac64b
Encoding settings : cabac=1 / ref=4 / deblock=1:-2:-2 / analyse=0x3:0x133 / me=umh / subme=7 / psy=1 / psy_rd=1.00:0.00 / mixed_ref=1 / me_range=16 / chroma_me=1 / trellis=2 / 8x8dct=1 / cqm=0 / deadzone=21,11 / fast_pskip=0 / chroma_qp_offset=-2 / threads=24 / lookahead_threads=6 / sliced_threads=0 / nr=0 / decimate=1 / interlaced=0 / bluray_compat=0 / constrained_intra=0 / bframes=5 / b_pyramid=2 / b_adapt=2 / b_bias=0 / direct=3 / weightb=1 / open_gop=0 / weightp=2 / keyint=250 / keyint_min=23 / scenecut=40 / intra_refresh=0 / rc_lookahead=40 / rc=2pass / mbtree=1 / bitrate=4365 / ratetol=1.0 / qcomp=0.60 / qpmin=0 / qpmax=69 / qpstep=4 / cplxblur=20.0 / qblur=0.5 / ip_ratio=1.40 / aq=1:1.00
Language : English
Default : Yes
Forced : Yes

Audio #1
ID : 2
Format : AC-3
Format/Info : Audio Coding 3
Format settings, Endianness : Big
Codec ID : A_AC3
Duration : 56 min 37 s
Bit rate mode : Constant
Bit rate : 384 kb/s
Channel(s) : 6 channels
Channel positions : Front: L C R, Side: L R, LFE
Sampling rate : 48.0 kHz
Frame rate : 31.250 FPS (1536 SPF)
Bit depth : 16 bits
Compression mode : Lossy
Stream size : 156 MiB (7%)
Title : ITA
Language : Italian
Service kind : Complete Main
Default : Yes
Forced : Yes

Audio #2
ID : 3
Format : AC-3
Format/Info : Audio Coding 3
Format settings, Endianness : Big
Codec ID : A_AC3
Duration : 56 min 37 s
Bit rate mode : Constant
Bit rate : 384 kb/s
Channel(s) : 6 channels
Channel positions : Front: L C R, Side: L R, LFE
Sampling rate : 48.0 kHz
Frame rate : 31.250 FPS (1536 SPF)
Bit depth : 16 bits
Compression mode : Lossy
Stream size : 156 MiB (7%)
Title : ENG
Language : English
Service kind : Complete Main
Default : No
Forced : No

Text #1
ID : 4
Format : UTF-8
Codec ID : S_TEXT/UTF8
Codec ID/Info : UTF-8 Plain Text
Duration : 1 s 0 ms
Bit rate : 0 b/s
Count of elements : 1
Stream size : 0.00 Byte (0%)
Title : NO SUBS
Default : Yes
Forced : Yes

Text #2
ID : 5
Format : UTF-8
Codec ID : S_TEXT/UTF8
Codec ID/Info : UTF-8 Plain Text
Duration : 54 min 59 s
Bit rate : 103 b/s
Count of elements : 1090
Stream size : 41.8 KiB (0%)
Title : ITA
Language : Italian
Default : No
Forced : No

Text #3
ID : 6
Format : UTF-8
Codec ID : S_TEXT/UTF8
Codec ID/Info : UTF-8 Plain Text
Duration : 55 min 23 s
Bit rate : 98 b/s
Count of elements : 1240
Stream size : 40.0 KiB (0%)
Title : ENG
Language : English
Default : No
Forced : No





Billions S03E01


Billions S03E01


Billions S03E01


Billions S03E01


Billions S03E01

All episodes