Featured TV Shows


Billions S05E01

Posted By: Tavaz
1080p (FullHD) / WEBRip IMDb
Billions S05E01

Billions S05E01
WEBRip | MKV | 1920x1080 | Français / English | H264 @ 5000 kbps | AAC @ 125 kbps | 56 min 44 s | 2.03 GiB
Subtitles: Français
Genre: Drama


A complex drama about power politics in the world of New York high finance.

Shrewd, savvy U.S. Attorney Chuck Rhoades and the brilliant, ambitious hedge fund king Bobby "Axe" Axelrod are on an explosive collision course, with each using all of his considerable smarts, power and influence to outmaneuver the other. The stakes are in the billions in this timely, provocative series.

705f813f994140a9bc9b69f39e1185c7.mkv (2.0 GB)



General
Unique ID : 36424571331748990152014284767321453396 (0x1B671E05024194A88011A3290804F354)
Complete name : ./705f813f994140a9bc9b69f39e1185c7.mkv
Format : Matroska
Format version : Version 4 / Version 2
File size : 2.03 GiB
Duration : 56 min 44 s
Overall bit rate : 5 127 kb/s
Encoded date : UTC 2020-08-05 13:38:16
Writing application : mkvmerge v49.0.0 ('Sick Of Losing Soulmates') 64-bit
Writing library : libebml v1.4.0 + libmatroska v1.6.1

Video
ID : 1
Format : AVC
Format/Info : Advanced Video Codec
Format profile : High@L4
Format settings : CABAC / 2 Ref Frames
Format settings, CABAC : Yes
Format settings, RefFrames : 2 frames
Codec ID : V_MPEG4/ISO/AVC
Duration : 56 min 42 s
Bit rate mode : Constant
Bit rate : 5 000 kb/s
Width : 1 920 pixels
Height : 1 080 pixels
Display aspect ratio : 16:9
Frame rate mode : Constant
Frame rate : 25.000 FPS
Color space : YUV
Chroma subsampling : 4:2:0
Bit depth : 8 bits
Scan type : Progressive
Bits/(Pixel*Frame) : 0.096
Stream size : 1.93 GiB (95%)
Default : Yes
Forced : No

Audio #1
ID : 2
Format : AAC
Format/Info : Advanced Audio Codec
Format profile : LC
Codec ID : A_AAC-2
Duration : 56 min 44 s
Bit rate : 125 kb/s
Channel(s) : 2 channels
Channel positions : Front: L R
Sampling rate : 48.0 kHz
Frame rate : 46.875 FPS (1024 SPF)
Compression mode : Lossy
Stream size : 50.9 MiB (2%)
Title : French
Language : French
Default : Yes
Forced : No

Audio #2
ID : 3
Format : AAC
Format/Info : Advanced Audio Codec
Format profile : LC
Codec ID : A_AAC-2
Duration : 56 min 44 s
Bit rate : 125 kb/s
Channel(s) : 2 channels
Channel positions : Front: L R
Sampling rate : 48.0 kHz
Frame rate : 46.875 FPS (1024 SPF)
Compression mode : Lossy
Stream size : 50.9 MiB (2%)
Title : English
Language : English
Default : No
Forced : No

Text
ID : 4
Format : UTF-8
Codec ID : S_TEXT/UTF8
Codec ID/Info : UTF-8 Plain Text
Duration : 41 min 54 s
Bit rate : 72 b/s
Count of elements : 668
Stream size : 22.2 KiB (0%)
Title : French
Language : French
Default : No
Forced : No





Billions S05E01


Billions S05E01


Billions S05E01


Billions S05E01


Billions S05E01

All episodes