Featured TV Shows


Черная молния S01E02

Posted By: Tavaz
Черная молния S01E02

Черная молния S01E02
AVI | 720x544 | MP4V-ES @ 1586 kbps | MPEG Audio @ 192 kbps | 39 min 8 s | 501 MiB
Genre: драма


В центре внимания на вид обычный чёрный парень Джефферсон Пирс. Но на самом деле, мужчина умело скрывает свою личность от внешних глаз. Его прозвали Чёрной Молнией из-за способности управлять поясом, который наделен силовым полем, и дает возможность Пирсу стрелять из него электронными зарядами. Супергерой уже давно закончил спортивную карьеру. В прошлом спортсмен мирового уровня, но по-прежнему находится в отличной форме. Благодаря своим физическим качествам и превосходной акробатики Чёрная Молния в тайне ведёт борьбу со злом в родном Метрополисе. Он может усилить свою прочность, стимулируя свое тело электричеством. Чёрная Молния может увеличить уровень силы, с помощью создания силового поля вокруг собственного тела. С помощью молнии он ошарашивает и припугивает злодеев, демонстрируя молниеносную реакцию и невосприимчивость к атакам. Ум и глаза работают также быстро, как и тело.

eaad61241ece47fbb0b5ae09599b1341.avi (500.7 MB)



General
Complete name : ./eaad61241ece47fbb0b5ae09599b1341.avi
Format : AVI
Format/Info : Audio Video Interleave
File size : 501 MiB
Duration : 39 min 8 s
Overall bit rate : 1 788 kb/s
Writing application : VirtualDubMod 1.5.10.2 (build 2540/release)
Writing library : VirtualDubMod build 2540/release

Video
ID : 0
Format : MPEG-4 Visual
Format profile : Advanced Simple@L5
Format settings : BVOP2
Format settings, BVOP : 2
Format settings, QPel : No
Format settings, GMC : No warppoints
Format settings, Matrix : Default (H.263)
Muxing mode : Packed bitstream
Codec ID : XVID
Codec ID/Hint : XviD
Duration : 39 min 8 s
Bit rate : 1 587 kb/s
Width : 720 pixels
Height : 544 pixels
Display aspect ratio : 4:3
Frame rate : 25.000 FPS
Color space : YUV
Chroma subsampling : 4:2:0
Bit depth : 8 bits
Scan type : Progressive
Compression mode : Lossy
Bits/(Pixel*Frame) : 0.162
Stream size : 444 MiB (89%)
Writing library : XviD 1.2.1 (UTC 2008-12-04)

Audio
ID : 1
Format : MPEG Audio
Format version : Version 1
Format profile : Layer 2
Codec ID : 50
Duration : 39 min 8 s
Bit rate mode : Constant
Bit rate : 192 kb/s
Channel(s) : 2 channels
Sampling rate : 48.0 kHz
Compression mode : Lossy
Stream size : 53.8 MiB (11%)
Alignment : Split accross interleaves
Interleave, duration : 40 ms (1.00 video frame)
Interleave, preload duration : 500 ms





Черная молния S01E02


Черная молния S01E02


Черная молния S01E02


Черная молния S01E02


Черная молния S01E02

All episodes