Featured TV Shows


Black Lightning S03E08

Posted By: Tavaz
1080p (FullHD) / WEBRip IMDb
Black Lightning S03E08

Black Lightning S03E08
WEBRip | MKV | 1920x1080 | English | H264 @ 8000 kbps | AAC @ 125 kbps | 42 min 7 s | 2.36 GiB
Genre: Drama


Jefferson Pierce is a man wrestling with a secret. As the father of two daughters and principal of a charter high school that also serves as a safe haven for young people in a New Orleans neighborhood overrun by gang violence, he is a hero to his community.

adfff1ec1e1341538b601a871bb060e9.mkv (2.4 GB)



General
Unique ID : 254914463704583227832836670679793867698 (0xBFC6BD697887B1DB9DF1D0C6BAF91BB2)
Complete name : ./adfff1ec1e1341538b601a871bb060e9.mkv
Format : Matroska
Format version : Version 4 / Version 2
File size : 2.36 GiB
Duration : 42 min 7 s
Overall bit rate : 8 031 kb/s
Encoded date : UTC 2019-12-03 06:04:15
Writing application : mkvmerge v31.0.0 ('Dolores In A Shoestand') 64-bit
Writing library : libebml v1.3.6 + libmatroska v1.4.9

Video
ID : 1
Format : AVC
Format/Info : Advanced Video Codec
Format profile : High@L4
Format settings : CABAC / 3 Ref Frames
Format settings, CABAC : Yes
Format settings, RefFrames : 3 frames
Codec ID : V_MPEG4/ISO/AVC
Duration : 42 min 7 s
Bit rate mode : Constant
Bit rate : 8 000 kb/s
Width : 1 920 pixels
Height : 1 080 pixels
Display aspect ratio : 16:9
Frame rate mode : Constant
Frame rate : 23.976 (24000/1001) FPS
Color space : YUV
Chroma subsampling : 4:2:0
Bit depth : 8 bits
Scan type : Progressive
Bits/(Pixel*Frame) : 0.161
Stream size : 2.33 GiB (98%)
Default : Yes
Forced : No

Audio
ID : 2
Format : AAC
Format/Info : Advanced Audio Codec
Format profile : LC
Codec ID : A_AAC-2
Duration : 42 min 7 s
Bit rate : 126 kb/s
Channel(s) : 2 channels
Channel positions : Front: L R
Sampling rate : 44.1 kHz
Frame rate : 43.066 FPS (1024 SPF)
Compression mode : Lossy
Stream size : 37.8 MiB (2%)
Language : English
Default : Yes
Forced : No





Black Lightning S03E08


Black Lightning S03E08


Black Lightning S03E08


Black Lightning S03E08


Black Lightning S03E08

All episodes