Index
# A B C D E F G H I J K L M N O P Q R S T U V W Y Z
Tags
Language
Tags
February 2023
Su Mo Tu We Th Fr Sa
29 30 31 1 2 3 4
5 6 7 8 9 10 11
12 13 14 15 16 17 18
19 20 21 22 23 24 25
26 27 28 1 2 3 4

Featured TV Shows


Black Lightning S03E08

Posted By: Tavaz
720p (HD) / WEBRip IMDb
Black Lightning S03E08

Black Lightning S03E08
WEBRip | MKV | 1280x718 | English | H264 @ 4080 kbps | AC-3 @ 384 kbps | 42 min 5 s | 1.31 GiB
Subtitles: English
Genre: Dramma


Jefferson Pierce in passato ha usato i suoi superpoteri per proteggere Freeland, ma ha abbandonato l'attività di protettore per dedicarsi alla propria famiglia e lavorare nel liceo locale in qualità di preside. Tuttavia, l'arrivo di una nuova gang criminale nella città lo costringe a riprendere i panni di Fulmine Nero.

cf9f9e49a35b4f189b78402a9077b57c.mkv (1.3 GB)



General
Unique ID : 52422548099703971868789114185879408298 (0x2770372BF77FB03813C1191A9F804EAA)
Complete name : ./cf9f9e49a35b4f189b78402a9077b57c.mkv
Format : Matroska
Format version : Version 4 / Version 2
File size : 1.31 GiB
Duration : 42 min 5 s
Overall bit rate : 4 466 kb/s
Encoded date : UTC 2019-12-03 20:09:53
Writing application : mkvmerge v40.0.0 ('Old Town Road + Pony') 64-bit
Writing library : libebml v1.3.9 + libmatroska v1.5.2
Cover : Yes
Attachments : cover.jpg

Video
ID : 1
Format : AVC
Format/Info : Advanced Video Codec
Format profile : High@L3.1
Format settings : 2 Ref Frames
Format settings, CABAC : No
Format settings, RefFrames : 2 frames
Codec ID : V_MPEG4/ISO/AVC
Duration : 42 min 5 s
Bit rate : 4 080 kb/s
Width : 1 280 pixels
Height : 718 pixels
Display aspect ratio : 16:9
Frame rate mode : Constant
Frame rate : 23.976 (23976/1000) FPS
Color space : YUV
Chroma subsampling : 4:2:0
Bit depth : 8 bits
Scan type : Progressive
Bits/(Pixel*Frame) : 0.185
Stream size : 1.20 GiB (91%)
Language : English
Default : Yes
Forced : No
Color range : Limited
Color primaries : BT.709
Transfer characteristics : BT.709
Matrix coefficients : BT.709

Audio
ID : 2
Format : AC-3
Format/Info : Audio Coding 3
Format settings, Endianness : Big
Codec ID : A_AC3
Duration : 42 min 5 s
Bit rate mode : Constant
Bit rate : 384 kb/s
Channel(s) : 6 channels
Channel positions : Front: L C R, Side: L R, LFE
Sampling rate : 48.0 kHz
Frame rate : 31.250 FPS (1536 SPF)
Bit depth : 16 bits
Compression mode : Lossy
Delay relative to video : -42 ms
Stream size : 116 MiB (9%)
Language : English
Service kind : Complete Main
Default : Yes
Forced : No

Text
ID : 3
Format : UTF-8
Codec ID : S_TEXT/UTF8
Codec ID/Info : UTF-8 Plain Text
Duration : 41 min 40 s
Bit rate : 102 b/s
Count of elements : 759
Stream size : 31.2 KiB (0%)
Language : English
Default : No
Forced : No





Black Lightning S03E08


Black Lightning S03E08


Black Lightning S03E08


Black Lightning S03E08


Black Lightning S03E08

All episodes