Featured TV Shows


Black Mirror S04E04

Posted By: Tavaz
720p (HD) / WEB-DL IMDb
Black Mirror S04E04

Black Mirror S04E04
WEB-DL | MKV | 1280x720 | English / Portuguese | H264 @ 991 kbps | AC-3 @ 384 kbps | 51 min 56 s | 667 MiB
Subtitles: Portuguese
Genre: Drama

A contemporary British re-working of The Twilight Zone with stories that tap into the collective unease about our modern world. 

Over the last ten years, technology has transformed almost every aspect of our lives before we've had time to stop and question it. In every home; on every desk; in every palm - a plasma screen; a monitor; a smartphone - a black mirror of our 21st Century existence.

Black.Mirror.S04E04.720p.NF.WEB-DL.DD5.1.x264-PiA.mkv (666.9 MB)



General
Unique ID : 267400828936670148850056226877804054290 (0xC92B86BF8C9E2E80D73EB48542DF0712)
Complete name : ./Black.Mirror.S04E04.720p.NF.WEB-DL.DD5.1.x264-PiA.mkv
Format : Matroska
Format version : Version 4 / Version 2
File size : 667 MiB
Duration : 51 min 56 s
Overall bit rate mode : Variable
Overall bit rate : 1 795 kb/s
Writing application : Lavf57.75.100
Writing library : Lavf57.75.100

Video
ID : 1
Format : AVC
Format/Info : Advanced Video Codec
Format profile : Main@L3.1
Format settings : CABAC / 3 Ref Frames
Format settings, CABAC : Yes
Format settings, RefFrames : 3 frames
Codec ID : V_MPEG4/ISO/AVC
Duration : 51 min 56 s
Bit rate mode : Variable
Bit rate : 991 kb/s
Nominal bit rate : 1 050 kb/s
Maximum bit rate : 1 575 kb/s
Width : 1 280 pixels
Height : 720 pixels
Display aspect ratio : 16:9
Frame rate mode : Constant
Frame rate : 25.000 FPS
Color space : YUV
Chroma subsampling : 4:2:0
Bit depth : 8 bits
Scan type : Progressive
Bits/(Pixel*Frame) : 0.043
Stream size : 368 MiB (55%)
Writing library : x264 core 148 r2714 2daf636
Encoding settings : cabac=1 / ref=3 / deblock=1:0:0 / analyse=0x1:0x111 / me=umh / subme=10 / psy=1 / psy_rd=1.00:0.00 / mixed_ref=1 / me_range=24 / chroma_me=1 / trellis=2 / 8x8dct=0 / cqm=0 / deadzone=21,11 / fast_pskip=1 / chroma_qp_offset=-2 / threads=8 / lookahead_threads=1 / sliced_threads=0 / nr=0 / decimate=1 / interlaced=0 / bluray_compat=0 / stitchable=1 / constrained_intra=0 / bframes=2 / b_pyramid=0 / b_adapt=2 / b_bias=0 / direct=3 / weightb=1 / open_gop=0 / weightp=2 / keyint=50 / keyint_min=26 / scenecut=0 / intra_refresh=0 / rc_lookahead=50 / rc=2pass / mbtree=1 / bitrate=1050 / ratetol=1.0 / qcomp=0.50 / qpmin=6 / qpmax=51 / qpstep=4 / cplxblur=20.0 / qblur=0.5 / vbv_maxrate=1575 / vbv_bufsize=2100 / nal_hrd=vbr / filler=0 / ip_ratio=1.40 / aq=1:1.00
Default : Yes
Forced : No

Audio #1
ID : 2
Format : AC-3
Format/Info : Audio Coding 3
Format settings, Endianness : Big
Codec ID : A_AC3
Duration : 51 min 56 s
Bit rate mode : Constant
Bit rate : 384 kb/s
Channel(s) : 6 channels
Channel positions : Front: L C R, Side: L R, LFE
Sampling rate : 48.0 kHz
Frame rate : 31.250 FPS (1536 SPF)
Bit depth : 16 bits
Compression mode : Lossy
Stream size : 143 MiB (21%)
Language : English
Service kind : Complete Main
Default : Yes
Forced : Yes

Audio #2
ID : 3
Format : AC-3
Format/Info : Audio Coding 3
Format settings, Endianness : Big
Codec ID : A_AC3
Duration : 51 min 56 s
Bit rate mode : Constant
Bit rate : 384 kb/s
Channel(s) : 6 channels
Channel positions : Front: L C R, Side: L R, LFE
Sampling rate : 48.0 kHz
Frame rate : 31.250 FPS (1536 SPF)
Bit depth : 16 bits
Compression mode : Lossy
Stream size : 143 MiB (21%)
Language : Portuguese
Service kind : Complete Main
Default : No
Forced : No

Text #1
ID : 4
Format : UTF-8
Codec ID : S_TEXT/UTF8
Codec ID/Info : UTF-8 Plain Text
Duration : 51 min 27 s
Language : Portuguese
Default : No
Forced : No

Text #2
ID : 5
Format : UTF-8
Codec ID : S_TEXT/UTF8
Codec ID/Info : UTF-8 Plain Text
Duration : 51 min 27 s
Title : Forced
Language : Portuguese
Default : Yes
Forced : Yes





Black Mirror S04E04


Black Mirror S04E04


Black Mirror S04E04


Black Mirror S04E04


Black Mirror S04E04

All episodes