Index
# A B C D E F G H I J K L M N O P Q R S T U V W Y Z
Tags
Language
Tags

Featured TV Shows


Blindspot S01E01

Posted By: Tavaz
1080p (FullHD) / BDRip IMDb
Blindspot S01E01

Blindspot S01E01
BluRay Remux | MKV | 1920x1080 | English | H264 @ 15889 kbps | DTS | 43 min 9 s | 5.65 GiB
Subtitles: Français, Deutsch, Suomi, Español, Svenska, Italiano, Nederlands, Dansk, English, 日本語
Genre: Crime, Drama


A vast international plot explodes when a beautiful Jane Doe is discovered naked in Times Square, completely covered in mysterious, intricate tattoos with no memory of who she is or how she got there. But there's one tattoo that is impossible to miss: the name of FBI agent Kurt Weller, emblazoned across her back. "Jane," Agent Weller and the rest of the FBI quickly realize that each mark on her body is a crime to solve, leading them closer to the truth about her identity and the mysteries to be revealed.

383c57fe8b4343deb766b2157a571fa0.mkv (5.6 GB)



General
Unique ID : 141062544255043142785848442455238346584 (0x6A1FA865A937296B84154929DE3B8758)
Complete name : ./383c57fe8b4343deb766b2157a571fa0.mkv
Format : Matroska
Format version : Version 4 / Version 2
File size : 5.65 GiB
Duration : 43 min 9 s
Overall bit rate mode : Variable
Overall bit rate : 18.7 Mb/s
Encoded date : UTC 2017-02-22 20:36:31
Writing application : mkvmerge v9.9.0 ('Pick Up') 64bit
Writing library : libebml v1.3.4 + libmatroska v1.4.5

Video
ID : 1
Format : AVC
Format/Info : Advanced Video Codec
Format profile : High@L4.1
Format settings : CABAC / 4 Ref Frames
Format settings, CABAC : Yes
Format settings, RefFrames : 4 frames
Codec ID : V_MPEG4/ISO/AVC
Duration : 43 min 9 s
Bit rate mode : Variable
Bit rate : 15.9 Mb/s
Maximum bit rate : 35.0 Mb/s
Width : 1 920 pixels
Height : 1 080 pixels
Display aspect ratio : 16:9
Frame rate mode : Constant
Frame rate : 23.976 (24000/1001) FPS
Color space : YUV
Chroma subsampling : 4:2:0
Bit depth : 8 bits
Scan type : Progressive
Bits/(Pixel*Frame) : 0.320
Stream size : 4.79 GiB (85%)
Title : MPEG-4 AVC Video / 15996 kbps / 1080p / 23.976 fps / 16:9 / High Profile 4.1
Language : English
Default : Yes
Forced : No

Audio #1
ID : 2
Format : DTS
Format/Info : Digital Theater Systems
Format profile : MA / Core
Mode : 16
Format settings, Endianness : Big
Codec ID : A_DTS
Duration : 43 min 9 s
Bit rate mode : Variable / Constant
Bit rate : 2 234 kb/s / 1 509 kb/s
Channel(s) : 6 channels
Channel positions : Front: L C R, Side: L R, LFE
Sampling rate : 48.0 kHz
Frame rate : 93.750 FPS (512 SPF)
Bit depth : 16 bits
Compression mode : Lossless / Lossy
Stream size : 690 MiB (12%)
Title : DTS-HD Master Audio / 5.1 / 48 kHz / 2234 kbps / 16-bit
Language : English
Default : Yes
Forced : No

Audio #2
ID : 3
Format : AC-3
Format/Info : Audio Coding 3
Mode : Dolby Digital
Format settings, Endianness : Big
Codec ID : A_AC3
Duration : 43 min 9 s
Bit rate mode : Constant
Bit rate : 192 kb/s
Channel(s) : 2 channels
Channel positions : Front: L R
Sampling rate : 48.0 kHz
Frame rate : 31.250 FPS (1536 SPF)
Bit depth : 16 bits
Compression mode : Lossy
Stream size : 59.3 MiB (1%)
Title : Commentary by Series Creator Martin Gero and Director Mark Pellingham (Dolby Digital Audio / 2.0 / 48 kHz / 192 kbps)
Language : English
Service kind : Complete Main
Default : No
Forced : No

Text #1
ID : 4
Format : PGS
Codec ID : S_HDMV/PGS
Codec ID/Info : Picture based subtitle format used on BDs/HD-DVDs
Duration : 42 min 59 s
Bit rate : 41.4 kb/s
Count of elements : 1152
Stream size : 12.7 MiB (0%)
Title : SDH
Language : English
Default : No
Forced : No

Text #2
ID : 5
Format : PGS
Codec ID : S_HDMV/PGS
Codec ID/Info : Picture based subtitle format used on BDs/HD-DVDs
Duration : 42 min 15 s
Bit rate : 25.9 kb/s
Count of elements : 1157
Stream size : 7.83 MiB (0%)
Language : Japanese
Default : No
Forced : No

Text #3
ID : 6
Format : PGS
Codec ID : S_HDMV/PGS
Codec ID/Info : Picture based subtitle format used on BDs/HD-DVDs
Duration : 42 min 41 s
Bit rate : 34.6 kb/s
Count of elements : 996
Stream size : 10.6 MiB (0%)
Language : French
Default : No
Forced : No

Text #4
ID : 7
Format : PGS
Codec ID : S_HDMV/PGS
Codec ID/Info : Picture based subtitle format used on BDs/HD-DVDs
Duration : 42 min 58 s
Bit rate : 49.1 kb/s
Count of elements : 1236
Stream size : 15.1 MiB (0%)
Language : German
Default : No
Forced : No

Text #5
ID : 8
Format : PGS
Codec ID : S_HDMV/PGS
Codec ID/Info : Picture based subtitle format used on BDs/HD-DVDs
Duration : 42 min 59 s
Bit rate : 39.8 kb/s
Count of elements : 1174
Stream size : 12.3 MiB (0%)
Language : Italian
Default : No
Forced : No

Text #6
ID : 9
Format : PGS
Codec ID : S_HDMV/PGS
Codec ID/Info : Picture based subtitle format used on BDs/HD-DVDs
Duration : 42 min 41 s
Bit rate : 36.1 kb/s
Count of elements : 942
Stream size : 11.0 MiB (0%)
Language : Dutch
Default : No
Forced : No

Text #7
ID : 10
Format : PGS
Codec ID : S_HDMV/PGS
Codec ID/Info : Picture based subtitle format used on BDs/HD-DVDs
Duration : 42 min 41 s
Bit rate : 37.7 kb/s
Count of elements : 1108
Stream size : 11.5 MiB (0%)
Language : Spanish
Default : No
Forced : No

Text #8
ID : 11
Format : PGS
Codec ID : S_HDMV/PGS
Codec ID/Info : Picture based subtitle format used on BDs/HD-DVDs
Duration : 42 min 41 s
Bit rate : 36.2 kb/s
Count of elements : 1110
Stream size : 11.1 MiB (0%)
Language : Danish
Default : No
Forced : No

Text #9
ID : 12
Format : PGS
Codec ID : S_HDMV/PGS
Codec ID/Info : Picture based subtitle format used on BDs/HD-DVDs
Duration : 42 min 41 s
Bit rate : 37.9 kb/s
Count of elements : 1108
Stream size : 11.6 MiB (0%)
Language : Finnish
Default : No
Forced : No

Text #10
ID : 13
Format : PGS
Codec ID : S_HDMV/PGS
Codec ID/Info : Picture based subtitle format used on BDs/HD-DVDs
Duration : 42 min 41 s
Bit rate : 36.0 kb/s
Count of elements : 1110
Stream size : 11.0 MiB (0%)
Language : Norwegian
Default : No
Forced : No

Text #11
ID : 14
Format : PGS
Codec ID : S_HDMV/PGS
Codec ID/Info : Picture based subtitle format used on BDs/HD-DVDs
Duration : 42 min 41 s
Bit rate : 38.7 kb/s
Count of elements : 1110
Stream size : 11.8 MiB (0%)
Language : Swedish
Default : No
Forced : No

Menu
00:00:00.000 : en:Chapter 1
00:06:46.156 : en:Chapter 2
00:15:01.984 : en:Chapter 3
00:25:53.385 : en:Chapter 4
00:32:39.124 : en:Chapter 5
00:37:28.079 : en:Chapter 6
00:42:31.132 : en:Chapter 7





Blindspot S01E01


Blindspot S01E01


Blindspot S01E01


Blindspot S01E01


Blindspot S01E01

All episodes