Index
# A B C D E F G H I J K L M N O P Q R S T U V W Y Z
Tags
Language
Tags

Featured TV Shows


Blindspot S01E03

Posted By: Tavaz
1080p (FullHD) / BDRip IMDb
Blindspot S01E03

Blindspot S01E03
BluRay Remux | MKV | 1920x1080 | English | H264 @ 15895 kbps | DTS | 42 min 4 s | 5.46 GiB
Subtitles: Français, Deutsch, Suomi, Español, Svenska, Italiano, Nederlands, Dansk, English, 日本語
Genre: Action, Crime, Drama


A vast international plot explodes when a beautiful Jane Doe is discovered naked in Times Square, completely covered in mysterious, intricate tattoos with no memory of who she is or how she got there. But there's one tattoo that is impossible to miss: the name of FBI agent Kurt Weller, emblazoned across her back. "Jane," Agent Weller and the rest of the FBI quickly realize that each mark on her body is a crime to solve, leading them closer to the truth about her identity and the mysteries to be revealed.

2bca65a285ba480cd677945d1efcbeb3.mkv (5.5 GB)



General
Unique ID : 69925864959928400743248531991148914670 (0x349B3B521725DE570226C9B8DCFC67EE)
Complete name : ./2bca65a285ba480cd677945d1efcbeb3.mkv
Format : Matroska
Format version : Version 4 / Version 2
File size : 5.46 GiB
Duration : 42 min 4 s
Overall bit rate mode : Variable
Overall bit rate : 18.6 Mb/s
Encoded date : UTC 2017-02-21 15:54:54
Writing application : mkvmerge v9.9.0 ('Pick Up') 64bit
Writing library : libebml v1.3.4 + libmatroska v1.4.5

Video
ID : 1
Format : AVC
Format/Info : Advanced Video Codec
Format profile : High@L4.1
Format settings : CABAC / 4 Ref Frames
Format settings, CABAC : Yes
Format settings, RefFrames : 4 frames
Codec ID : V_MPEG4/ISO/AVC
Duration : 42 min 4 s
Bit rate mode : Variable
Bit rate : 15.9 Mb/s
Maximum bit rate : 35.0 Mb/s
Width : 1 920 pixels
Height : 1 080 pixels
Display aspect ratio : 16:9
Frame rate mode : Constant
Frame rate : 23.976 (24000/1001) FPS
Color space : YUV
Chroma subsampling : 4:2:0
Bit depth : 8 bits
Scan type : Progressive
Bits/(Pixel*Frame) : 0.320
Stream size : 4.67 GiB (86%)
Title : MPEG-4 AVC Video / 15999 kbps / 1080p / 23.976 fps / 16:9 / High Profile 4.1
Language : English
Default : Yes
Forced : No

Audio
ID : 2
Format : DTS
Format/Info : Digital Theater Systems
Format profile : MA / Core
Mode : 16
Format settings, Endianness : Big
Codec ID : A_DTS
Duration : 42 min 4 s
Bit rate mode : Variable / Constant
Bit rate : 2 257 kb/s / 1 509 kb/s
Channel(s) : 6 channels
Channel positions : Front: L C R, Side: L R, LFE
Sampling rate : 48.0 kHz
Frame rate : 93.750 FPS (512 SPF)
Bit depth : 16 bits
Compression mode : Lossless / Lossy
Stream size : 679 MiB (12%)
Title : DTS-HD Master Audio / 5.1 / 48 kHz / 2257 kbps / 16-bit
Language : English
Default : Yes
Forced : No

Text #1
ID : 3
Format : PGS
Codec ID : S_HDMV/PGS
Codec ID/Info : Picture based subtitle format used on BDs/HD-DVDs
Duration : 42 min 0 s
Bit rate : 45.8 kb/s
Count of elements : 1312
Stream size : 13.8 MiB (0%)
Title : SDH
Language : English
Default : No
Forced : No

Text #2
ID : 4
Format : PGS
Codec ID : S_HDMV/PGS
Codec ID/Info : Picture based subtitle format used on BDs/HD-DVDs
Duration : 41 min 9 s
Bit rate : 27.3 kb/s
Count of elements : 1204
Stream size : 8.04 MiB (0%)
Language : Japanese
Default : No
Forced : No

Text #3
ID : 5
Format : PGS
Codec ID : S_HDMV/PGS
Codec ID/Info : Picture based subtitle format used on BDs/HD-DVDs
Duration : 42 min 0 s
Bit rate : 36.9 kb/s
Count of elements : 1066
Stream size : 11.1 MiB (0%)
Language : French
Default : No
Forced : No

Text #4
ID : 6
Format : PGS
Codec ID : S_HDMV/PGS
Codec ID/Info : Picture based subtitle format used on BDs/HD-DVDs
Duration : 42 min 0 s
Bit rate : 53.1 kb/s
Count of elements : 1374
Stream size : 16.0 MiB (0%)
Language : German
Default : No
Forced : No

Text #5
ID : 7
Format : PGS
Codec ID : S_HDMV/PGS
Codec ID/Info : Picture based subtitle format used on BDs/HD-DVDs
Duration : 42 min 0 s
Bit rate : 39.8 kb/s
Count of elements : 1318
Stream size : 11.9 MiB (0%)
Language : Italian
Default : No
Forced : No

Text #6
ID : 8
Format : PGS
Codec ID : S_HDMV/PGS
Codec ID/Info : Picture based subtitle format used on BDs/HD-DVDs
Duration : 42 min 0 s
Bit rate : 36.3 kb/s
Count of elements : 1080
Stream size : 10.9 MiB (0%)
Language : Dutch
Default : No
Forced : No

Text #7
ID : 9
Format : PGS
Codec ID : S_HDMV/PGS
Codec ID/Info : Picture based subtitle format used on BDs/HD-DVDs
Duration : 42 min 0 s
Bit rate : 39.6 kb/s
Count of elements : 1206
Stream size : 11.9 MiB (0%)
Language : Spanish
Default : No
Forced : No

Text #8
ID : 10
Format : PGS
Codec ID : S_HDMV/PGS
Codec ID/Info : Picture based subtitle format used on BDs/HD-DVDs
Duration : 42 min 0 s
Bit rate : 38.5 kb/s
Count of elements : 1198
Stream size : 11.6 MiB (0%)
Language : Danish
Default : No
Forced : No

Text #9
ID : 11
Format : PGS
Codec ID : S_HDMV/PGS
Codec ID/Info : Picture based subtitle format used on BDs/HD-DVDs
Duration : 42 min 0 s
Bit rate : 37.6 kb/s
Count of elements : 1198
Stream size : 11.3 MiB (0%)
Language : Finnish
Default : No
Forced : No

Text #10
ID : 12
Format : PGS
Codec ID : S_HDMV/PGS
Codec ID/Info : Picture based subtitle format used on BDs/HD-DVDs
Duration : 42 min 0 s
Bit rate : 38.4 kb/s
Count of elements : 1200
Stream size : 11.5 MiB (0%)
Language : Norwegian
Default : No
Forced : No

Text #11
ID : 13
Format : PGS
Codec ID : S_HDMV/PGS
Codec ID/Info : Picture based subtitle format used on BDs/HD-DVDs
Duration : 42 min 0 s
Bit rate : 38.9 kb/s
Count of elements : 1202
Stream size : 11.7 MiB (0%)
Language : Swedish
Default : No
Forced : No

Menu
00:00:00.000 : en:Chapter 1
00:01:01.436 : en:Chapter 2
00:09:56.221 : en:Chapter 3
00:17:20.039 : en:Chapter 4
00:26:19.244 : en:Chapter 5
00:31:02.652 : en:Chapter 6
00:36:29.646 : en:Chapter 7
00:41:26.567 : en:Chapter 8





Blindspot S01E03


Blindspot S01E03


Blindspot S01E03


Blindspot S01E03


Blindspot S01E03

All episodes