Index
# A B C D E F G H I J K L M N O P Q R S T U V W Y Z
Tags
Language
Tags

Featured TV Shows


Blindspot S01E07

Posted By: Tavaz
1080p (FullHD) / BDRip IMDb
Blindspot S01E07

Blindspot S01E07
BluRay Remux | MKV | 1920x1080 | English | H264 @ 15885 kbps | DTS | 42 min 9 s | 5.50 GiB
Subtitles: Français, Deutsch, Suomi, Español, Svenska, Italiano, Nederlands, Dansk, English, 日本語
Genre: Crime, Drama


A vast international plot explodes when a beautiful Jane Doe is discovered naked in Times Square, completely covered in mysterious, intricate tattoos with no memory of who she is or how she got there. But there's one tattoo that is impossible to miss: the name of FBI agent Kurt Weller, emblazoned across her back. "Jane," Agent Weller and the rest of the FBI quickly realize that each mark on her body is a crime to solve, leading them closer to the truth about her identity and the mysteries to be revealed.

0e6158abafc2f61a2f8a158b81a1af90.mkv (5.5 GB)



General
Unique ID : 29557928061860673838909595430436458961 (0x163CA65E32883CFF94F0F503E073D1D1)
Complete name : ./0e6158abafc2f61a2f8a158b81a1af90.mkv
Format : Matroska
Format version : Version 4 / Version 2
File size : 5.50 GiB
Duration : 42 min 9 s
Overall bit rate mode : Variable
Overall bit rate : 18.7 Mb/s
Encoded date : UTC 2017-02-21 15:57:47
Writing application : mkvmerge v9.9.0 ('Pick Up') 64bit
Writing library : libebml v1.3.4 + libmatroska v1.4.5

Video
ID : 1
Format : AVC
Format/Info : Advanced Video Codec
Format profile : High@L4.1
Format settings : CABAC / 4 Ref Frames
Format settings, CABAC : Yes
Format settings, RefFrames : 4 frames
Codec ID : V_MPEG4/ISO/AVC
Duration : 42 min 9 s
Bit rate mode : Variable
Bit rate : 15.9 Mb/s
Maximum bit rate : 35.0 Mb/s
Width : 1 920 pixels
Height : 1 080 pixels
Display aspect ratio : 16:9
Frame rate mode : Constant
Frame rate : 23.976 (24000/1001) FPS
Color space : YUV
Chroma subsampling : 4:2:0
Bit depth : 8 bits
Scan type : Progressive
Bits/(Pixel*Frame) : 0.320
Stream size : 4.68 GiB (85%)
Title : MPEG-4 AVC Video / 15996 kbps / 1080p / 23.976 fps / 16:9 / High Profile 4.1
Language : English
Default : Yes
Forced : No

Audio
ID : 2
Format : DTS
Format/Info : Digital Theater Systems
Format profile : MA / Core
Mode : 16
Format settings, Endianness : Big
Codec ID : A_DTS
Duration : 42 min 9 s
Bit rate mode : Variable / Constant
Bit rate : 2 317 kb/s / 1 509 kb/s
Channel(s) : 6 channels
Channel positions : Front: L C R, Side: L R, LFE
Sampling rate : 48.0 kHz
Frame rate : 93.750 FPS (512 SPF)
Bit depth : 16 bits
Compression mode : Lossless / Lossy
Stream size : 699 MiB (12%)
Title : DTS-HD Master Audio / 5.1 / 48 kHz / 2317 kbps / 16-bit
Language : English
Default : Yes
Forced : No

Text #1
ID : 3
Format : PGS
Codec ID : S_HDMV/PGS
Codec ID/Info : Picture based subtitle format used on BDs/HD-DVDs
Duration : 42 min 5 s
Bit rate : 49.1 kb/s
Count of elements : 1376
Stream size : 14.8 MiB (0%)
Title : SDH
Language : English
Default : No
Forced : No

Text #2
ID : 4
Format : PGS
Codec ID : S_HDMV/PGS
Codec ID/Info : Picture based subtitle format used on BDs/HD-DVDs
Duration : 41 min 22 s
Bit rate : 32.3 kb/s
Count of elements : 1401
Stream size : 9.57 MiB (0%)
Language : Japanese
Default : No
Forced : No

Text #3
ID : 5
Format : PGS
Codec ID : S_HDMV/PGS
Codec ID/Info : Picture based subtitle format used on BDs/HD-DVDs
Duration : 42 min 5 s
Bit rate : 41.4 kb/s
Count of elements : 1142
Stream size : 12.5 MiB (0%)
Language : French
Default : No
Forced : No

Text #4
ID : 6
Format : PGS
Codec ID : S_HDMV/PGS
Codec ID/Info : Picture based subtitle format used on BDs/HD-DVDs
Duration : 42 min 5 s
Bit rate : 58.3 kb/s
Count of elements : 1450
Stream size : 17.5 MiB (0%)
Language : German
Default : No
Forced : No

Text #5
ID : 7
Format : PGS
Codec ID : S_HDMV/PGS
Codec ID/Info : Picture based subtitle format used on BDs/HD-DVDs
Duration : 42 min 5 s
Bit rate : 45.5 kb/s
Count of elements : 1400
Stream size : 13.7 MiB (0%)
Language : Italian
Default : No
Forced : No

Text #6
ID : 8
Format : PGS
Codec ID : S_HDMV/PGS
Codec ID/Info : Picture based subtitle format used on BDs/HD-DVDs
Duration : 42 min 5 s
Bit rate : 43.7 kb/s
Count of elements : 1164
Stream size : 13.1 MiB (0%)
Language : Dutch
Default : No
Forced : No

Text #7
ID : 9
Format : PGS
Codec ID : S_HDMV/PGS
Codec ID/Info : Picture based subtitle format used on BDs/HD-DVDs
Duration : 42 min 5 s
Bit rate : 41.3 kb/s
Count of elements : 1176
Stream size : 12.4 MiB (0%)
Language : Spanish
Default : No
Forced : No

Text #8
ID : 10
Format : PGS
Codec ID : S_HDMV/PGS
Codec ID/Info : Picture based subtitle format used on BDs/HD-DVDs
Duration : 42 min 5 s
Bit rate : 42.9 kb/s
Count of elements : 1312
Stream size : 12.9 MiB (0%)
Language : Danish
Default : No
Forced : No

Text #9
ID : 11
Format : PGS
Codec ID : S_HDMV/PGS
Codec ID/Info : Picture based subtitle format used on BDs/HD-DVDs
Duration : 42 min 5 s
Bit rate : 39.0 kb/s
Count of elements : 1312
Stream size : 11.7 MiB (0%)
Language : Finnish
Default : No
Forced : No

Text #10
ID : 12
Format : PGS
Codec ID : S_HDMV/PGS
Codec ID/Info : Picture based subtitle format used on BDs/HD-DVDs
Duration : 42 min 5 s
Bit rate : 41.4 kb/s
Count of elements : 1312
Stream size : 12.5 MiB (0%)
Language : Norwegian
Default : No
Forced : No

Text #11
ID : 13
Format : PGS
Codec ID : S_HDMV/PGS
Codec ID/Info : Picture based subtitle format used on BDs/HD-DVDs
Duration : 42 min 5 s
Bit rate : 43.8 kb/s
Count of elements : 1312
Stream size : 13.2 MiB (0%)
Language : Swedish
Default : No
Forced : No

Menu
00:00:00.000 : en:Chapter 1
00:00:56.265 : en:Chapter 2
00:08:59.622 : en:Chapter 3
00:17:09.362 : en:Chapter 4
00:24:21.543 : en:Chapter 5
00:28:58.695 : en:Chapter 6
00:34:48.503 : en:Chapter 7
00:41:31.239 : en:Chapter 8





Blindspot S01E07


Blindspot S01E07


Blindspot S01E07


Blindspot S01E07


Blindspot S01E07

All episodes