Index
# A B C D E F G H I J K L M N O P Q R S T U V W Y Z
Tags
Language
Tags

Featured TV Shows


Blindspot S01E10

Posted By: Tavaz
1080p (FullHD) / BDRip IMDb
Blindspot S01E10

Blindspot S01E10
BluRay Remux | MKV | 1920x1080 | English | H264 @ 15876 kbps | DTS | 41 min 31 s | 5.40 GiB
Subtitles: Français, Deutsch, Suomi, Español, Svenska, Italiano, Nederlands, Dansk, English, 日本語
Genre: Crime, Drama


A vast international plot explodes when a beautiful Jane Doe is discovered naked in Times Square, completely covered in mysterious, intricate tattoos with no memory of who she is or how she got there. But there's one tattoo that is impossible to miss: the name of FBI agent Kurt Weller, emblazoned across her back. "Jane," Agent Weller and the rest of the FBI quickly realize that each mark on her body is a crime to solve, leading them closer to the truth about her identity and the mysteries to be revealed.

0fe5d362e13aed1d105bfe41097feaf2.mkv (5.4 GB)



General
Unique ID : 310208108272180427284098926854495804402 (0xE95FE891936A23236D0049E9F0C81BF2)
Complete name : ./0fe5d362e13aed1d105bfe41097feaf2.mkv
Format : Matroska
Format version : Version 4 / Version 2
File size : 5.40 GiB
Duration : 41 min 31 s
Overall bit rate mode : Variable
Overall bit rate : 18.6 Mb/s
Encoded date : UTC 2017-02-22 20:12:49
Writing application : mkvmerge v9.9.0 ('Pick Up') 64bit
Writing library : libebml v1.3.4 + libmatroska v1.4.5

Video
ID : 1
Format : AVC
Format/Info : Advanced Video Codec
Format profile : High@L4.1
Format settings : CABAC / 4 Ref Frames
Format settings, CABAC : Yes
Format settings, RefFrames : 4 frames
Codec ID : V_MPEG4/ISO/AVC
Duration : 41 min 31 s
Bit rate mode : Variable
Bit rate : 15.9 Mb/s
Maximum bit rate : 35.0 Mb/s
Width : 1 920 pixels
Height : 1 080 pixels
Display aspect ratio : 16:9
Frame rate mode : Constant
Frame rate : 23.976 (24000/1001) FPS
Color space : YUV
Chroma subsampling : 4:2:0
Bit depth : 8 bits
Scan type : Progressive
Bits/(Pixel*Frame) : 0.319
Stream size : 4.60 GiB (85%)
Title : MPEG-4 AVC Video / 15998 kbps / 1080p / 23.976 fps / 16:9 / High Profile 4.1
Language : English
Default : Yes
Forced : No

Audio
ID : 2
Format : DTS
Format/Info : Digital Theater Systems
Format profile : MA / Core
Mode : 16
Format settings, Endianness : Big
Codec ID : A_DTS
Duration : 41 min 31 s
Bit rate mode : Variable / Constant
Bit rate : 2 289 kb/s / 1 509 kb/s
Channel(s) : 6 channels
Channel positions : Front: L C R, Side: L R, LFE
Sampling rate : 48.0 kHz
Frame rate : 93.750 FPS (512 SPF)
Bit depth : 16 bits
Compression mode : Lossless / Lossy
Stream size : 680 MiB (12%)
Title : DTS-HD Master Audio / 5.1 / 48 kHz / 2289 kbps / 16-bit
Language : English
Default : Yes
Forced : No

Text #1
ID : 3
Format : PGS
Codec ID : S_HDMV/PGS
Codec ID/Info : Picture based subtitle format used on BDs/HD-DVDs
Duration : 41 min 26 s
Bit rate : 46.2 kb/s
Count of elements : 1306
Stream size : 13.7 MiB (0%)
Title : SDH
Language : English
Default : No
Forced : No

Text #2
ID : 4
Format : PGS
Codec ID : S_HDMV/PGS
Codec ID/Info : Picture based subtitle format used on BDs/HD-DVDs
Duration : 40 min 42 s
Bit rate : 28.9 kb/s
Count of elements : 1076
Stream size : 8.41 MiB (0%)
Language : Japanese
Default : No
Forced : No

Text #3
ID : 5
Format : PGS
Codec ID : S_HDMV/PGS
Codec ID/Info : Picture based subtitle format used on BDs/HD-DVDs
Duration : 41 min 26 s
Bit rate : 37.6 kb/s
Count of elements : 1014
Stream size : 11.1 MiB (0%)
Language : French
Default : No
Forced : No

Text #4
ID : 6
Format : PGS
Codec ID : S_HDMV/PGS
Codec ID/Info : Picture based subtitle format used on BDs/HD-DVDs
Duration : 41 min 26 s
Bit rate : 52.8 kb/s
Count of elements : 1350
Stream size : 15.7 MiB (0%)
Language : German
Default : No
Forced : No

Text #5
ID : 7
Format : PGS
Codec ID : S_HDMV/PGS
Codec ID/Info : Picture based subtitle format used on BDs/HD-DVDs
Duration : 41 min 26 s
Bit rate : 45.2 kb/s
Count of elements : 1344
Stream size : 13.4 MiB (0%)
Language : Italian
Default : No
Forced : No

Text #6
ID : 8
Format : PGS
Codec ID : S_HDMV/PGS
Codec ID/Info : Picture based subtitle format used on BDs/HD-DVDs
Duration : 41 min 26 s
Bit rate : 40.1 kb/s
Count of elements : 1020
Stream size : 11.9 MiB (0%)
Language : Dutch
Default : No
Forced : No

Text #7
ID : 9
Format : PGS
Codec ID : S_HDMV/PGS
Codec ID/Info : Picture based subtitle format used on BDs/HD-DVDs
Duration : 41 min 26 s
Bit rate : 37.3 kb/s
Count of elements : 1034
Stream size : 11.1 MiB (0%)
Language : Spanish
Default : No
Forced : No

Text #8
ID : 10
Format : PGS
Codec ID : S_HDMV/PGS
Codec ID/Info : Picture based subtitle format used on BDs/HD-DVDs
Duration : 41 min 26 s
Bit rate : 39.9 kb/s
Count of elements : 1236
Stream size : 11.8 MiB (0%)
Language : Danish
Default : No
Forced : No

Text #9
ID : 11
Format : PGS
Codec ID : S_HDMV/PGS
Codec ID/Info : Picture based subtitle format used on BDs/HD-DVDs
Duration : 41 min 26 s
Bit rate : 42.0 kb/s
Count of elements : 1236
Stream size : 12.5 MiB (0%)
Language : Finnish
Default : No
Forced : No

Text #10
ID : 12
Format : PGS
Codec ID : S_HDMV/PGS
Codec ID/Info : Picture based subtitle format used on BDs/HD-DVDs
Duration : 41 min 26 s
Bit rate : 41.0 kb/s
Count of elements : 1236
Stream size : 12.1 MiB (0%)
Language : Norwegian
Default : No
Forced : No

Text #11
ID : 13
Format : PGS
Codec ID : S_HDMV/PGS
Codec ID/Info : Picture based subtitle format used on BDs/HD-DVDs
Duration : 41 min 26 s
Bit rate : 39.8 kb/s
Count of elements : 1236
Stream size : 11.8 MiB (0%)
Language : Swedish
Default : No
Forced : No

Menu
00:00:00.000 : en:Chapter 1
00:00:59.977 : en:Chapter 2
00:10:05.313 : en:Chapter 3
00:16:48.883 : en:Chapter 4
00:23:40.586 : en:Chapter 5
00:30:56.063 : en:Chapter 6
00:35:28.918 : en:Chapter 7
00:40:52.825 : en:Chapter 8





Blindspot S01E10


Blindspot S01E10


Blindspot S01E10


Blindspot S01E10


Blindspot S01E10

All episodes