Index
# A B C D E F G H I J K L M N O P Q R S T U V W Y Z
Tags
Language
Tags

Featured TV Shows


Blindspot S01E20

Posted By: Tavaz
Blindspot S01E20

Blindspot S01E20
MKV | 1280x720 | English | H264 @ 2200 kbps | AC-3 @ 384 kbps | 42 min 27 s | 785 MiB
Subtitles: English
Genre: Crime, Drama


A vast international plot explodes when a beautiful Jane Doe is discovered naked in Times Square, completely covered in mysterious, intricate tattoos with no memory of who she is or how she got there. But there's one tattoo that is impossible to miss: the name of FBI agent Kurt Weller, emblazoned across her back. "Jane," Agent Weller and the rest of the FBI quickly realize that each mark on her body is a crime to solve, leading them closer to the truth about her identity and the mysteries to be revealed.

d01734f3da5b4d62939b7e57d1b7f663.mkv (785.0 MB)



General
Unique ID : 215829927407463789497795351369824561954 (0xA25F54FE88F564C8A271592541476B22)
Complete name : ./d01734f3da5b4d62939b7e57d1b7f663.mkv
Format : Matroska
Format version : Version 4 / Version 2
File size : 785 MiB
Duration : 42 min 27 s
Overall bit rate mode : Variable
Overall bit rate : 2 584 kb/s
Movie name : blindspot s01e20 720p bluray x264-demand
Encoded date : UTC 2016-08-18 16:25:03
Writing application : mkvmerge v9.3.1 ('Mask Machine') 32bit
Writing library : libebml v1.3.4 + libmatroska v1.4.5

Video
ID : 1
Format : AVC
Format/Info : Advanced Video Codec
Format profile : High@L4.1
Format settings : CABAC / 5 Ref Frames
Format settings, CABAC : Yes
Format settings, RefFrames : 5 frames
Codec ID : V_MPEG4/ISO/AVC
Duration : 42 min 27 s
Bit rate mode : Variable
Bit rate : 2 200 kb/s
Maximum bit rate : 62.5 Mb/s
Width : 1 280 pixels
Height : 720 pixels
Display aspect ratio : 16:9
Frame rate mode : Constant
Frame rate : 23.976 (24000/1001) FPS
Color space : YUV
Chroma subsampling : 4:2:0
Bit depth : 8 bits
Scan type : Progressive
Bits/(Pixel*Frame) : 0.100
Stream size : 668 MiB (85%)
Writing library : x264 core 148 r2694 3b70645
Encoding settings : cabac=1 / ref=5 / deblock=1:-1:-1 / analyse=0x3:0x113 / me=umh / subme=8 / psy=1 / psy_rd=1.00:0.15 / mixed_ref=1 / me_range=16 / chroma_me=1 / trellis=1 / 8x8dct=1 / cqm=0 / deadzone=21,11 / fast_pskip=1 / chroma_qp_offset=-3 / threads=18 / lookahead_threads=3 / sliced_threads=0 / nr=0 / decimate=1 / interlaced=0 / bluray_compat=0 / constrained_intra=0 / bframes=3 / b_pyramid=2 / b_adapt=2 / b_bias=0 / direct=3 / weightb=1 / open_gop=0 / weightp=2 / keyint=240 / keyint_min=24 / scenecut=40 / intra_refresh=0 / rc_lookahead=50 / rc=2pass / mbtree=1 / bitrate=2200 / ratetol=1.0 / qcomp=0.60 / qpmin=0 / qpmax=69 / qpstep=4 / cplxblur=20.0 / qblur=0.5 / vbv_maxrate=62500 / vbv_bufsize=62500 / nal_hrd=vbr / filler=0 / ip_ratio=1.40 / aq=1:1.00
Default : Yes
Forced : No

Audio
ID : 2
Format : AC-3
Format/Info : Audio Coding 3
Format settings, Endianness : Big
Codec ID : A_AC3
Duration : 42 min 27 s
Bit rate mode : Constant
Bit rate : 384 kb/s
Channel(s) : 6 channels
Channel positions : Front: L C R, Side: L R, LFE
Sampling rate : 48.0 kHz
Frame rate : 31.250 FPS (1536 SPF)
Bit depth : 16 bits
Compression mode : Lossy
Stream size : 117 MiB (15%)
Language : English
Service kind : Complete Main
Default : Yes
Forced : No

Text
ID : 3
Format : UTF-8
Codec ID : S_TEXT/UTF8
Codec ID/Info : UTF-8 Plain Text
Duration : 41 min 54 s
Bit rate : 83 b/s
Count of elements : 725
Stream size : 25.5 KiB (0%)
Language : English
Default : No
Forced : No

Menu
00:00:00.000 : en:00:00:00.000
00:08:07.570 : en:00:08:07.570
00:14:51.724 : en:00:14:51.724
00:21:57.358 : en:00:21:57.358
00:27:13.799 : en:00:27:13.799
00:32:45.380 : en:00:32:45.380
00:41:48.339 : en:00:41:48.339





Blindspot S01E20


Blindspot S01E20


Blindspot S01E20


Blindspot S01E20


Blindspot S01E20

All episodes