Index
# A B C D E F G H I J K L M N O P Q R S T U V W Y Z
Tags
Language
Tags

Featured TV Shows


Blindspot S01E22

Posted By: Tavaz
1080p (FullHD) / BDRip IMDb
Blindspot S01E22

Blindspot S01E22
BluRay Remux | MKV | 1920x1080 | English | H264 @ 15884 kbps | DTS | 42 min 54 s | 5.58 GiB
Subtitles: Français, Deutsch, Suomi, Español, Svenska, Italiano, Nederlands, Dansk, English, 日本語
Genre: Crime, Drama


A vast international plot explodes when a beautiful Jane Doe is discovered naked in Times Square, completely covered in mysterious, intricate tattoos with no memory of who she is or how she got there. But there's one tattoo that is impossible to miss: the name of FBI agent Kurt Weller, emblazoned across her back. "Jane," Agent Weller and the rest of the FBI quickly realize that each mark on her body is a crime to solve, leading them closer to the truth about her identity and the mysteries to be revealed.

17db46c7fe68f947cc0f0138790d6ffe.mkv (5.6 GB)



General
Unique ID : 63282833041725643236936978903163129161 (0x2F9BD48F54F998DD31DC32DDF622CD49)
Complete name : ./17db46c7fe68f947cc0f0138790d6ffe.mkv
Format : Matroska
Format version : Version 4 / Version 2
File size : 5.58 GiB
Duration : 42 min 54 s
Overall bit rate mode : Variable
Overall bit rate : 18.6 Mb/s
Encoded date : UTC 2017-02-21 16:07:25
Writing application : mkvmerge v9.9.0 ('Pick Up') 64bit
Writing library : libebml v1.3.4 + libmatroska v1.4.5

Video
ID : 1
Format : AVC
Format/Info : Advanced Video Codec
Format profile : High@L4.1
Format settings : CABAC / 4 Ref Frames
Format settings, CABAC : Yes
Format settings, RefFrames : 4 frames
Codec ID : V_MPEG4/ISO/AVC
Duration : 42 min 54 s
Bit rate mode : Variable
Bit rate : 15.9 Mb/s
Maximum bit rate : 35.0 Mb/s
Width : 1 920 pixels
Height : 1 080 pixels
Display aspect ratio : 16:9
Frame rate mode : Constant
Frame rate : 23.976 (24000/1001) FPS
Color space : YUV
Chroma subsampling : 4:2:0
Bit depth : 8 bits
Scan type : Progressive
Bits/(Pixel*Frame) : 0.320
Stream size : 4.76 GiB (85%)
Title : MPEG-4 AVC Video / 15998 kbps / 1080p / 23.976 fps / 16:9 / High Profile 4.1
Language : English
Default : Yes
Forced : No

Audio
ID : 2
Format : DTS
Format/Info : Digital Theater Systems
Format profile : MA / Core
Mode : 16
Format settings, Endianness : Big
Codec ID : A_DTS
Duration : 42 min 54 s
Bit rate mode : Variable / Constant
Bit rate : 2 255 kb/s / 1 509 kb/s
Channel(s) : 6 channels
Channel positions : Front: L C R, Side: L R, LFE
Sampling rate : 48.0 kHz
Frame rate : 93.750 FPS (512 SPF)
Bit depth : 16 bits
Compression mode : Lossless / Lossy
Stream size : 692 MiB (12%)
Title : DTS-HD Master Audio / 5.1 / 48 kHz / 2255 kbps / 16-bit
Language : English
Default : Yes
Forced : No

Text #1
ID : 3
Format : PGS
Codec ID : S_HDMV/PGS
Codec ID/Info : Picture based subtitle format used on BDs/HD-DVDs
Duration : 42 min 49 s
Bit rate : 47.6 kb/s
Count of elements : 1386
Stream size : 14.6 MiB (0%)
Title : SDH
Language : English
Default : No
Forced : No

Text #2
ID : 4
Format : PGS
Codec ID : S_HDMV/PGS
Codec ID/Info : Picture based subtitle format used on BDs/HD-DVDs
Duration : 41 min 50 s
Bit rate : 30.8 kb/s
Count of elements : 1377
Stream size : 9.21 MiB (0%)
Language : Japanese
Default : No
Forced : No

Text #3
ID : 5
Format : PGS
Codec ID : S_HDMV/PGS
Codec ID/Info : Picture based subtitle format used on BDs/HD-DVDs
Duration : 42 min 49 s
Bit rate : 41.1 kb/s
Count of elements : 1186
Stream size : 12.6 MiB (0%)
Language : French
Default : No
Forced : No

Text #4
ID : 6
Format : PGS
Codec ID : S_HDMV/PGS
Codec ID/Info : Picture based subtitle format used on BDs/HD-DVDs
Duration : 42 min 49 s
Bit rate : 56.2 kb/s
Count of elements : 1454
Stream size : 17.2 MiB (0%)
Language : German
Default : No
Forced : No

Text #5
ID : 7
Format : PGS
Codec ID : S_HDMV/PGS
Codec ID/Info : Picture based subtitle format used on BDs/HD-DVDs
Duration : 42 min 49 s
Bit rate : 45.6 kb/s
Count of elements : 1400
Stream size : 14.0 MiB (0%)
Language : Italian
Default : No
Forced : No

Text #6
ID : 8
Format : PGS
Codec ID : S_HDMV/PGS
Codec ID/Info : Picture based subtitle format used on BDs/HD-DVDs
Duration : 42 min 49 s
Bit rate : 41.1 kb/s
Count of elements : 1254
Stream size : 12.6 MiB (0%)
Language : Dutch
Default : No
Forced : No

Text #7
ID : 9
Format : PGS
Codec ID : S_HDMV/PGS
Codec ID/Info : Picture based subtitle format used on BDs/HD-DVDs
Duration : 42 min 49 s
Bit rate : 39.6 kb/s
Count of elements : 1240
Stream size : 12.1 MiB (0%)
Language : Spanish
Default : No
Forced : No

Text #8
ID : 10
Format : PGS
Codec ID : S_HDMV/PGS
Codec ID/Info : Picture based subtitle format used on BDs/HD-DVDs
Duration : 42 min 49 s
Bit rate : 42.0 kb/s
Count of elements : 1264
Stream size : 12.9 MiB (0%)
Language : Danish
Default : No
Forced : No

Text #9
ID : 11
Format : PGS
Codec ID : S_HDMV/PGS
Codec ID/Info : Picture based subtitle format used on BDs/HD-DVDs
Duration : 42 min 49 s
Bit rate : 40.5 kb/s
Count of elements : 1262
Stream size : 12.4 MiB (0%)
Language : Finnish
Default : No
Forced : No

Text #10
ID : 12
Format : PGS
Codec ID : S_HDMV/PGS
Codec ID/Info : Picture based subtitle format used on BDs/HD-DVDs
Duration : 42 min 49 s
Bit rate : 40.1 kb/s
Count of elements : 1262
Stream size : 12.3 MiB (0%)
Language : Norwegian
Default : No
Forced : No

Text #11
ID : 13
Format : PGS
Codec ID : S_HDMV/PGS
Codec ID/Info : Picture based subtitle format used on BDs/HD-DVDs
Duration : 42 min 49 s
Bit rate : 42.8 kb/s
Count of elements : 1262
Stream size : 13.1 MiB (0%)
Language : Swedish
Default : No
Forced : No

Menu
00:00:00.000 : en:Chapter 1
00:09:12.635 : en:Chapter 2
00:15:34.934 : en:Chapter 3
00:23:58.187 : en:Chapter 4
00:30:54.061 : en:Chapter 5
00:37:52.312 : en:Chapter 6
00:42:16.534 : en:Chapter 7





Blindspot S01E22


Blindspot S01E22


Blindspot S01E22


Blindspot S01E22


Blindspot S01E22

All episodes