Index
# A B C D E F G H I J K L M N O P Q R S T U V W Y Z
Tags
Language
Tags
February 2023
Su Mo Tu We Th Fr Sa
29 30 31 1 2 3 4
5 6 7 8 9 10 11
12 13 14 15 16 17 18
19 20 21 22 23 24 25
26 27 28 1 2 3 4

Featured TV Shows


Blindspot S02E02

Posted By: Tavaz
720p (HD) / BDRip IMDb
Blindspot S02E02

Blindspot S02E02
BDRip | MKV | 1280x720 | English | H264 @ 5987 kbps | DTS @ 1509 kbps | 41 min 41 s | 2.18 GiB
Subtitles: Suomi, Svenska, Dansk
Genre: Crime, Drama


A vast international plot explodes when a beautiful Jane Doe is discovered naked in Times Square, completely covered in mysterious, intricate tattoos with no memory of who she is or how she got there. But there's one tattoo that is impossible to miss: the name of FBI agent Kurt Weller, emblazoned across her back. "Jane," Agent Weller and the rest of the FBI quickly realize that each mark on her body is a crime to solve, leading them closer to the truth about her identity and the mysteries to be revealed.

Blindspot.S02E02.NORDiC.720p.BluRay.x264.DTS5.1-TWA.mkv (2.2 GB)



General
Unique ID : 176568815208923669931978826003388035337 (0x84D5EAB66467D49AB11EDEB2A8A7F109)
Complete name : ./Blindspot.S02E02.NORDiC.720p.BluRay.x264.DTS5.1-TWA.mkv
Format : Matroska
Format version : Version 4 / Version 2
File size : 2.18 GiB
Duration : 41 min 41 s
Overall bit rate : 7 497 kb/s
Movie name : .:: TWA - Blindspot S02E02 ::.
Encoded date : UTC 2017-08-16 08:55:52
Writing application : mkvmerge v10.0.0 ('To Drown In You') 64bit
Writing library : libebml v1.3.4 + libmatroska v1.4.5

Video
ID : 1
Format : AVC
Format/Info : Advanced Video Codec
Format profile : High@L4.1
Format settings : CABAC / 5 Ref Frames
Format settings, CABAC : Yes
Format settings, RefFrames : 5 frames
Codec ID : V_MPEG4/ISO/AVC
Duration : 41 min 41 s
Bit rate : 5 987 kb/s
Width : 1 280 pixels
Height : 720 pixels
Display aspect ratio : 16:9
Frame rate mode : Constant
Frame rate : 23.976 (24000/1001) FPS
Color space : YUV
Chroma subsampling : 4:2:0
Bit depth : 8 bits
Scan type : Progressive
Bits/(Pixel*Frame) : 0.271
Stream size : 1.74 GiB (80%)
Writing library : x264 core 152 r2851 ba24899
Encoding settings : cabac=1 / ref=5 / deblock=1:-3:-3 / analyse=0x3:0x113 / me=umh / subme=8 / psy=1 / psy_rd=1.00:0.00 / mixed_ref=1 / me_range=16 / chroma_me=1 / trellis=1 / 8x8dct=1 / cqm=0 / deadzone=21,11 / fast_pskip=1 / chroma_qp_offset=-2 / threads=6 / lookahead_threads=1 / sliced_threads=0 / nr=0 / decimate=1 / interlaced=0 / bluray_compat=0 / constrained_intra=0 / bframes=3 / b_pyramid=2 / b_adapt=2 / b_bias=0 / direct=3 / weightb=1 / open_gop=0 / weightp=2 / keyint=240 / keyint_min=24 / scenecut=40 / intra_refresh=0 / rc_lookahead=50 / rc=2pass / mbtree=1 / bitrate=5987 / ratetol=1.0 / qcomp=0.60 / qpmin=0 / qpmax=69 / qpstep=4 / cplxblur=20.0 / qblur=0.5 / ip_ratio=1.40 / aq=3:0.80
Default : Yes
Forced : No

Audio
ID : 2
Format : DTS
Format/Info : Digital Theater Systems
Mode : 16
Format settings, Endianness : Big
Codec ID : A_DTS
Duration : 41 min 41 s
Bit rate mode : Constant
Bit rate : 1 509 kb/s
Channel(s) : 6 channels
Channel positions : Front: L C R, Side: L R, LFE
Sampling rate : 48.0 kHz
Frame rate : 93.750 FPS (512 SPF)
Bit depth : 24 bits
Compression mode : Lossy
Stream size : 450 MiB (20%)
Language : English
Default : Yes
Forced : No

Text #1
ID : 3
Format : UTF-8
Codec ID : S_TEXT/UTF8
Codec ID/Info : UTF-8 Plain Text
Duration : 41 min 34 s
Bit rate : 83 b/s
Count of elements : 685
Stream size : 25.5 KiB (0%)
Language : Danish
Default : Yes
Forced : No

Text #2
ID : 4
Format : UTF-8
Codec ID : S_TEXT/UTF8
Codec ID/Info : UTF-8 Plain Text
Duration : 41 min 34 s
Bit rate : 81 b/s
Count of elements : 686
Stream size : 24.8 KiB (0%)
Language : Finnish
Default : No
Forced : No

Text #3
ID : 5
Format : UTF-8
Codec ID : S_TEXT/UTF8
Codec ID/Info : UTF-8 Plain Text
Duration : 41 min 34 s
Bit rate : 78 b/s
Count of elements : 685
Stream size : 23.8 KiB (0%)
Language : Norwegian
Default : No
Forced : No

Text #4
ID : 6
Format : UTF-8
Codec ID : S_TEXT/UTF8
Codec ID/Info : UTF-8 Plain Text
Duration : 41 min 34 s
Bit rate : 83 b/s
Count of elements : 685
Stream size : 25.5 KiB (0%)
Language : Swedish
Default : No
Forced : No

Menu
00:00:00.000 : en:00:00:00.000
00:08:44.691 : en:00:08:44.691
00:14:12.685 : en:00:14:12.685
00:20:54.128 : en:00:20:54.128
00:26:48.982 : en:00:26:48.982
00:33:26.421 : en:00:33:26.421
00:41:02.502 : en:00:41:02.502





Blindspot S02E02


Blindspot S02E02


Blindspot S02E02


Blindspot S02E02


Blindspot S02E02

All episodes