Index
# A B C D E F G H I J K L M N O P Q R S T U V W Y Z
Tags
Language
Tags

Featured TV Shows


Blindspot S03E10

Posted By: Tavaz
720p (HD) / WEBRip IMDb
Blindspot S03E10

Blindspot S03E10
WEB-DL | MKV | 1280x720 | German / English | H264 @ 3048 kbps | AC-3 @ 192 kbps | 41 min 15 s | 1.05 GiB
Genre: Action, Krimi, Drama

Eine unbekannte Frau ohne Erinnerungen – Jane Doe (Jaimie Alexander) – entsteigt auf dem belebten Times Square in New York City nackt einem Dufflebag. Auf ihrem Körper findet sich ein großflächiges Tattoo. Darin finden Experten bald einen verwirrenden Hinweis: Den Namen Kurt Weller, der einem FBI Agenten gehört (gespielt von Sullivan Stapleton). Ebenfalls bald offensichtlich wird, dass jedes Teil des Tattoos auf ein Verbrechen hinweist, das zu lösen ist. So machen sich Jane und das FBI an die Aufklärung und auf die Suche nach einer Auflösung von Janes rätselhafter Herkunft – und damit mitten hinein in eine großangelegte, internationale Verschwörung.

S03 Episode10 HD.mkv (1.0 GB)



General
Unique ID : 200633993551123344355360097905118865379 (0x96F0B39C55626987957BE34740A4E7E3)
Complete name : ./BS Tattoos S03E10 GermanEnglish HD/S03 Episode10 HD.mkv
Format : Matroska
Format version : Version 4 / Version 2
File size : 1.05 GiB
Duration : 41 min 15 s
Overall bit rate : 3 626 kb/s
Encoded date : UTC 2018-07-04 18:31:21
Writing application : mkvmerge v8.3.0 ('Over the Horizon') 64bit
Writing library : libebml v1.3.1 + libmatroska v1.4.2

Video
ID : 1
Format : AVC
Format/Info : Advanced Video Codec
Format profile : High@L4.1
Format settings : CABAC / 5 Ref Frames
Format settings, CABAC : Yes
Format settings, RefFrames : 5 frames
Codec ID : V_MPEG4/ISO/AVC
Duration : 41 min 15 s
Bit rate : 3 048 kb/s
Width : 1 280 pixels
Height : 720 pixels
Display aspect ratio : 16:9
Frame rate mode : Constant
Frame rate : 25.000 FPS
Original frame rate : 23.976 (24000/1001) FPS
Color space : YUV
Chroma subsampling : 4:2:0
Bit depth : 8 bits
Scan type : Progressive
Bits/(Pixel*Frame) : 0.132
Stream size : 900 MiB (84%)
Writing library : x264 core 155 r2901 7d0ff22
Encoding settings : cabac=1 / ref=5 / deblock=1:-3:-3 / analyse=0x3:0x133 / me=umh / subme=10 / psy=1 / psy_rd=1.05:0.15 / mixed_ref=1 / me_range=16 / chroma_me=1 / trellis=2 / 8x8dct=1 / cqm=0 / deadzone=21,11 / fast_pskip=0 / chroma_qp_offset=-3 / threads=12 / lookahead_threads=1 / sliced_threads=0 / nr=0 / decimate=1 / interlaced=0 / bluray_compat=0 / constrained_intra=0 / bframes=3 / b_pyramid=2 / b_adapt=2 / b_bias=0 / direct=3 / weightb=1 / open_gop=0 / weightp=2 / keyint=250 / keyint_min=24 / scenecut=40 / intra_refresh=0 / rc_lookahead=50 / rc=crf / mbtree=1 / crf=18.0 / qcomp=0.60 / qpmin=0 / qpmax=69 / qpstep=4 / ip_ratio=1.40 / aq=3:0.65
Language : English
Default : Yes
Forced : No

Audio #1
ID : 2
Format : AC-3
Format/Info : Audio Coding 3
Format settings, Endianness : Big
Codec ID : A_AC3
Duration : 41 min 15 s
Bit rate mode : Constant
Bit rate : 192 kb/s
Channel(s) : 2 channels
Channel positions : Front: L R
Sampling rate : 48.0 kHz
Frame rate : 31.250 FPS (1536 SPF)
Bit depth : 16 bits
Compression mode : Lossy
Stream size : 56.7 MiB (5%)
Language : German
Service kind : Complete Main
Default : Yes
Forced : No

Audio #2
ID : 3
Format : AC-3
Format/Info : Audio Coding 3
Format settings, Endianness : Big
Codec ID : A_AC3
Duration : 41 min 15 s
Bit rate mode : Constant
Bit rate : 384 kb/s
Channel(s) : 6 channels
Channel positions : Front: L C R, Side: L R, LFE
Sampling rate : 48.0 kHz
Frame rate : 31.250 FPS (1536 SPF)
Bit depth : 16 bits
Compression mode : Lossy
Stream size : 113 MiB (11%)
Language : English
Service kind : Complete Main
Default : No
Forced : No





Blindspot S03E10


Blindspot S03E10


Blindspot S03E10


Blindspot S03E10


Blindspot S03E10

All episodes