Index
# A B C D E F G H I J K L M N O P Q R S T U V W Y Z
Tags
Language
Tags

Featured TV Shows


Blindspot S03E11

Posted By: Tavaz
1080p (FullHD) / BDRip IMDb
Blindspot S03E11

Blindspot S03E11
BluRay Remux | MKV | 1920x1080 | English | H264 @ 19328 kbps | DTS | 42 min 58 s | 6.96 GiB
Subtitles: English
Genre: Crime, Drama


A vast international plot explodes when a beautiful Jane Doe is discovered naked in Times Square, completely covered in mysterious, intricate tattoos with no memory of who she is or how she got there. But there's one tattoo that is impossible to miss: the name of FBI agent Kurt Weller, emblazoned across her back. "Jane," Agent Weller and the rest of the FBI quickly realize that each mark on her body is a crime to solve, leading them closer to the truth about her identity and the mysteries to be revealed.

78e249afbe0b4ae2afaa75cfe6f6c911.mkv (7.0 GB)



General
Unique ID : 328462538516631573511808969653013200496 (0xF71B9577725DC04905C05D6D65A83E70)
Complete name : ./78e249afbe0b4ae2afaa75cfe6f6c911.mkv
Format : Matroska
Format version : Version 4 / Version 2
File size : 6.96 GiB
Duration : 42 min 58 s
Overall bit rate mode : Variable
Overall bit rate : 23.2 Mb/s
Encoded date : UTC 2018-08-26 20:33:38
Writing application : mkvmerge v25.0.0 ('Prog Noir') 64-bit
Writing library : libebml v1.3.6 + libmatroska v1.4.9

Video
ID : 1
Format : AVC
Format/Info : Advanced Video Codec
Format profile : High@L4.1
Format settings : CABAC / 4 Ref Frames
Format settings, CABAC : Yes
Format settings, RefFrames : 4 frames
Codec ID : V_MPEG4/ISO/AVC
Duration : 42 min 58 s
Bit rate mode : Variable
Bit rate : 19.3 Mb/s
Maximum bit rate : 38.0 Mb/s
Width : 1 920 pixels
Height : 1 080 pixels
Display aspect ratio : 16:9
Frame rate mode : Constant
Frame rate : 23.976 (24000/1001) FPS
Color space : YUV
Chroma subsampling : 4:2:0
Bit depth : 8 bits
Scan type : Progressive
Bits/(Pixel*Frame) : 0.389
Stream size : 5.80 GiB (83%)
Title : MPEG-4 AVC Video / 19498 kbps / 1080p / 23.976 fps / 16:9 / High Profile 4.1
Language : English
Default : Yes
Forced : No

Audio
ID : 2
Format : DTS
Format/Info : Digital Theater Systems
Format profile : MA / Core
Mode : 16
Format settings, Endianness : Big
Codec ID : A_DTS
Duration : 42 min 58 s
Bit rate mode : Variable / Constant
Bit rate : 3 726 kb/s / 1 509 kb/s
Channel(s) : 6 channels
Channel positions : Front: L C R, Side: L R, LFE
Sampling rate : 48.0 kHz
Frame rate : 93.750 FPS (512 SPF)
Bit depth : 24 bits
Compression mode : Lossless / Lossy
Stream size : 1.12 GiB (16%)
Title : DTS-HD Master Audio / 5.1 / 48 kHz / 3726 kbps / 24-bit
Language : English
Default : Yes
Forced : No

Text
ID : 3
Format : PGS
Codec ID : S_HDMV/PGS
Codec ID/Info : Picture based subtitle format used on BDs/HD-DVDs
Duration : 42 min 48 s
Bit rate : 128 kb/s
Count of elements : 1894
Stream size : 39.2 MiB (1%)
Title : SDH
Language : English
Default : No
Forced : No

Menu
00:00:00.000 : en:Chapter 1
00:06:03.405 : en:Chapter 2
00:15:13.830 : en:Chapter 3
00:20:17.550 : en:Chapter 4
00:27:38.866 : en:Chapter 5
00:33:47.317 : en:Chapter 6
00:42:20.997 : en:Chapter 7





Blindspot S03E11


Blindspot S03E11


Blindspot S03E11


Blindspot S03E11


Blindspot S03E11

All episodes