Index
# A B C D E F G H I J K L M N O P Q R S T U V W Y Z
Tags
Language
Tags

Featured TV Shows


Blindspot S03E15

Posted By: Tavaz
1080p (FullHD) / HDTV IMDb
Blindspot S03E15

Blindspot S03E15
HDTV | MKV | 1920x1080 | Français / English | H264 @ 8362 kbps | AAC @ 62 kbps | 40 min 55 s | 2.43 GiB
Subtitles: Français
Genre: Action, Crime, Drama


A vast international plot explodes when a beautiful Jane Doe is discovered naked in Times Square, completely covered in mysterious, intricate tattoos with no memory of who she is or how she got there. But there's one tattoo that is impossible to miss: the name of FBI agent Kurt Weller, emblazoned across her back. "Jane," Agent Weller and the rest of the FBI quickly realize that each mark on her body is a crime to solve, leading them closer to the truth about her identity and the mysteries to be revealed.

d3d218f99a83498ba9662ecb847aae77.mkv (2.4 GB)



General
Unique ID : 92116316120957290636898252466070563757 (0x454CF5085535CA31722444A481712BAD)
Complete name : ./d3d218f99a83498ba9662ecb847aae77.mkv
Format : Matroska
Format version : Version 4 / Version 2
File size : 2.43 GiB
Duration : 40 min 55 s
Overall bit rate : 8 491 kb/s
Encoded date : UTC 2020-08-13 21:14:54
Writing application : mkvmerge v49.0.0 ('Sick Of Losing Soulmates') 64-bit
Writing library : libebml v1.4.0 + libmatroska v1.6.1

Video
ID : 1
Format : AVC
Format/Info : Advanced Video Codec
Format profile : High@L4
Format settings : CABAC / 4 Ref Frames
Format settings, CABAC : Yes
Format settings, RefFrames : 4 frames
Format settings, GOP : M=4, N=24
Codec ID : V_MPEG4/ISO/AVC
Duration : 40 min 55 s
Bit rate : 8 363 kb/s
Width : 1 920 pixels
Height : 1 080 pixels
Display aspect ratio : 16:9
Frame rate mode : Constant
Frame rate : 25.000 FPS
Standard : Component
Color space : YUV
Chroma subsampling : 4:2:0
Bit depth : 8 bits
Scan type : Interlaced
Scan type, store method : Separated fields
Scan order : Top Field First
Bits/(Pixel*Frame) : 0.161
Stream size : 2.39 GiB (98%)
Default : No
Forced : No
Color range : Limited
Color primaries : BT.709
Transfer characteristics : BT.709
Matrix coefficients : BT.709

Audio #1
ID : 2
Format : AAC
Format/Info : Advanced Audio Codec
Format profile : HE-AAC / LC
Format settings : Implicit
Codec ID : A_AAC-2
Duration : 40 min 55 s
Bit rate : 62.7 kb/s
Channel(s) : 2 channels
Channel positions : Front: L R
Sampling rate : 48.0 kHz / 24.0 kHz
Frame rate : 23.438 FPS (1024 SPF)
Compression mode : Lossy
Stream size : 18.4 MiB (1%)
Title : French
Language : French
Default : Yes
Forced : No

Audio #2
ID : 3
Format : AAC
Format/Info : Advanced Audio Codec
Format profile : HE-AAC / LC
Format settings : Implicit
Codec ID : A_AAC-2
Duration : 40 min 55 s
Bit rate : 62.7 kb/s
Channel(s) : 2 channels
Channel positions : Front: L R
Sampling rate : 48.0 kHz / 24.0 kHz
Frame rate : 23.438 FPS (1024 SPF)
Compression mode : Lossy
Stream size : 18.4 MiB (1%)
Title : English
Language : English
Default : No
Forced : No

Text
ID : 4
Format : UTF-8
Codec ID : S_TEXT/UTF8
Codec ID/Info : UTF-8 Plain Text
Duration : 40 min 32 s
Bit rate : 88 b/s
Count of elements : 814
Stream size : 26.4 KiB (0%)
Title : French
Language : French
Default : No
Forced : No





Blindspot S03E15


Blindspot S03E15


Blindspot S03E15


Blindspot S03E15


Blindspot S03E15

All episodes