Index
# A B C D E F G H I J K L M N O P Q R S T U V W X Y Z
Tags
Language
Tags
May 2024
Su Mo Tu We Th Fr Sa
28 29 30 1 2 3 4
5 6 7 8 9 10 11
12 13 14 15 16 17 18
19 20 21 22 23 24 25
26 27 28 29 30 31 1

Featured TV Shows


Blindspot S03E19

Posted By: Tavaz
1080p (FullHD) / BDRip IMDb
Blindspot S03E19

Blindspot S03E19
WEB-DL | MKV | 1920x1080 | German / English | H264 @ 9339 kbps | AC-3 @ 192 kbps | 41 min 24 s | 2.98 GiB
Genre: Action, Krimi, Drama

Eine unbekannte Frau ohne Erinnerungen – Jane Doe (Jaimie Alexander) – entsteigt auf dem belebten Times Square in New York City nackt einem Dufflebag. Auf ihrem Körper findet sich ein großflächiges Tattoo. Darin finden Experten bald einen verwirrenden Hinweis: Den Namen Kurt Weller, der einem FBI Agenten gehört (gespielt von Sullivan Stapleton). Ebenfalls bald offensichtlich wird, dass jedes Teil des Tattoos auf ein Verbrechen hinweist, das zu lösen ist. So machen sich Jane und das FBI an die Aufklärung und auf die Suche nach einer Auflösung von Janes rätselhafter Herkunft – und damit mitten hinein in eine großangelegte, internationale Verschwörung.

Blindspot.S03E19.German.DL.DUBBED.1080p.BluRay.x264-AIDA.mkv (3.0 GB)



General
Unique ID : 221000758611665251217442900944996016995 (0xA64332A7E309118A97B2EA68B4D02363)
Complete name : ./Blindspot.S03E19.German.DL.DUBBED.1080p.BluRay.x264-AIDA.mkv
Format : Matroska
Format version : Version 4 / Version 2
File size : 2.98 GiB
Duration : 41 min 24 s
Overall bit rate : 10.3 Mb/s
Encoded date : UTC 2018-11-02 17:09:33
Writing application : mkvmerge v8.3.0 ('Over the Horizon') 64bit
Writing library : libebml v1.3.1 + libmatroska v1.4.2

Video
ID : 1
Format : AVC
Format/Info : Advanced Video Codec
Format profile : High@L4.1
Format settings : CABAC / 4 Ref Frames
Format settings, CABAC : Yes
Format settings, RefFrames : 4 frames
Codec ID : V_MPEG4/ISO/AVC
Duration : 41 min 24 s
Bit rate : 9 339 kb/s
Width : 1 920 pixels
Height : 1 080 pixels
Display aspect ratio : 16:9
Frame rate mode : Constant
Frame rate : 25.000 FPS
Original frame rate : 23.976 (24000/1001) FPS
Color space : YUV
Chroma subsampling : 4:2:0
Bit depth : 8 bits
Scan type : Progressive
Bits/(Pixel*Frame) : 0.180
Stream size : 2.81 GiB (94%)
Writing library : x264 core 155 r2901 7d0ff22
Encoding settings : cabac=1 / ref=4 / deblock=1:-3:-3 / analyse=0x3:0x113 / me=umh / subme=8 / psy=1 / psy_rd=1.00:0.15 / mixed_ref=1 / me_range=24 / chroma_me=1 / trellis=1 / 8x8dct=1 / cqm=0 / deadzone=21,11 / fast_pskip=1 / chroma_qp_offset=-3 / threads=34 / lookahead_threads=5 / sliced_threads=0 / nr=0 / decimate=1 / interlaced=0 / bluray_compat=0 / constrained_intra=0 / bframes=3 / b_pyramid=2 / b_adapt=1 / b_bias=0 / direct=3 / weightb=1 / open_gop=0 / weightp=2 / keyint=240 / keyint_min=24 / scenecut=40 / intra_refresh=0 / rc_lookahead=50 / rc=2pass / mbtree=1 / bitrate=9339 / ratetol=1.0 / qcomp=0.60 / qpmin=0 / qpmax=69 / qpstep=4 / cplxblur=20.0 / qblur=0.5 / ip_ratio=1.40 / aq=1:0.80
Default : Yes
Forced : No

Audio #1
ID : 2
Format : AC-3
Format/Info : Audio Coding 3
Format settings, Endianness : Big
Codec ID : A_AC3
Duration : 41 min 24 s
Bit rate mode : Constant
Bit rate : 192 kb/s
Channel(s) : 2 channels
Channel positions : Front: L R
Sampling rate : 48.0 kHz
Frame rate : 31.250 FPS (1536 SPF)
Bit depth : 16 bits
Compression mode : Lossy
Stream size : 56.9 MiB (2%)
Language : German
Service kind : Complete Main
Default : Yes
Forced : No

Audio #2
ID : 3
Format : AC-3
Format/Info : Audio Coding 3
Format settings, Endianness : Big
Codec ID : A_AC3
Duration : 41 min 24 s
Bit rate mode : Constant
Bit rate : 384 kb/s
Channel(s) : 6 channels
Channel positions : Front: L C R, Side: L R, LFE
Sampling rate : 48.0 kHz
Frame rate : 31.250 FPS (1536 SPF)
Bit depth : 16 bits
Compression mode : Lossy
Stream size : 114 MiB (4%)
Language : English
Service kind : Complete Main
Default : No
Forced : No

Menu
00:00:00.000 : en:00:00:00.000
00:07:23.401 : en:00:07:23.401
00:14:03.968 : en:00:14:03.968
00:22:13.207 : en:00:22:13.207
00:30:36.668 : en:00:30:36.668
00:35:26.750 : en:00:35:26.750
00:42:32.467 : en:00:42:32.467





Blindspot S03E19


Blindspot S03E19


Blindspot S03E19


Blindspot S03E19


Blindspot S03E19

All episodes