Index
# A B C D E F G H I J K L M N O P Q R S T U V W Y Z
Tags
Language
Tags

Featured TV Shows


Blindspot S03E19

Posted By: Tavaz
1080p (FullHD) / BDRip IMDb
Blindspot S03E19

Blindspot S03E19
BluRay Remux | MKV | 1920x1080 | English | H264 @ 23807 kbps | DTS | 43 min 10 s | 8.36 GiB
Subtitles: English
Genre: Crime, Drama


A vast international plot explodes when a beautiful Jane Doe is discovered naked in Times Square, completely covered in mysterious, intricate tattoos with no memory of who she is or how she got there. But there's one tattoo that is impossible to miss: the name of FBI agent Kurt Weller, emblazoned across her back. "Jane," Agent Weller and the rest of the FBI quickly realize that each mark on her body is a crime to solve, leading them closer to the truth about her identity and the mysteries to be revealed.

Blindspot.S03E19.Galaxy.of.Minds.1080p.BluRay.REMUX.AVC.DTS-HD.MA.5.1-EPSiLON.part1.rar (4.4 GB)
Blindspot.S03E19.Galaxy.of.Minds.1080p.BluRay.REMUX.AVC.DTS-HD.MA.5.1-EPSiLON.part2.rar (4.1 GB)



General
Unique ID : 221647577778500567067436513242854717836 (0xA6BFC54D8AD2F1AFCF9E1E07F3A7F98C)
Complete name : ./fe0912761aaa4eb4bdf85b6788b1f8f7.mkv
Format : Matroska
Format version : Version 4 / Version 2
File size : 8.36 GiB
Duration : 43 min 10 s
Overall bit rate mode : Variable
Overall bit rate : 27.7 Mb/s
Encoded date : UTC 2018-08-26 20:45:40
Writing application : mkvmerge v25.0.0 ('Prog Noir') 64-bit
Writing library : libebml v1.3.6 + libmatroska v1.4.9

Video
ID : 1
Format : AVC
Format/Info : Advanced Video Codec
Format profile : High@L4.1
Format settings : CABAC / 4 Ref Frames
Format settings, CABAC : Yes
Format settings, RefFrames : 4 frames
Codec ID : V_MPEG4/ISO/AVC
Duration : 43 min 10 s
Bit rate mode : Variable
Bit rate : 23.8 Mb/s
Maximum bit rate : 38.0 Mb/s
Width : 1 920 pixels
Height : 1 080 pixels
Display aspect ratio : 16:9
Frame rate mode : Constant
Frame rate : 23.976 (24000/1001) FPS
Color space : YUV
Chroma subsampling : 4:2:0
Bit depth : 8 bits
Scan type : Progressive
Bits/(Pixel*Frame) : 0.479
Stream size : 7.18 GiB (86%)
Title : MPEG-4 AVC Video / 23986 kbps / 1080p / 23.976 fps / 16:9 / High Profile 4.1
Language : English
Default : Yes
Forced : No

Audio
ID : 2
Format : DTS
Format/Info : Digital Theater Systems
Format profile : MA / Core
Mode : 16
Format settings, Endianness : Big
Codec ID : A_DTS
Duration : 43 min 10 s
Bit rate mode : Variable / Constant
Bit rate : 3 840 kb/s / 1 509 kb/s
Channel(s) : 6 channels
Channel positions : Front: L C R, Side: L R, LFE
Sampling rate : 48.0 kHz
Frame rate : 93.750 FPS (512 SPF)
Bit depth : 24 bits
Compression mode : Lossless / Lossy
Stream size : 1.14 GiB (14%)
Title : DTS-HD Master Audio / 5.1 / 48 kHz / 3797 kbps / 24-bit
Language : English
Default : Yes
Forced : No

Text
ID : 3
Format : PGS
Codec ID : S_HDMV/PGS
Codec ID/Info : Picture based subtitle format used on BDs/HD-DVDs
Duration : 42 min 58 s
Bit rate : 122 kb/s
Count of elements : 1876
Stream size : 37.4 MiB (0%)
Title : SDH
Language : English
Default : No
Forced : No

Menu
00:00:00.000 : en:Chapter 1
00:07:23.401 : en:Chapter 2
00:14:03.968 : en:Chapter 3
00:22:13.207 : en:Chapter 4
00:30:36.668 : en:Chapter 5
00:35:26.750 : en:Chapter 6
00:42:32.467 : en:Chapter 7





Blindspot S03E19


Blindspot S03E19


Blindspot S03E19


Blindspot S03E19


Blindspot S03E19

All episodes