Featured TV Shows


Blindspot S03E20

Posted By: Tavaz
720p (HD) / WEBRip IMDb
Blindspot S03E20

Blindspot S03E20
WEBRip | MKV | 1280x720 | English | H264 @ 5002 kbps | E-AC-3 @ 640 kbps | 42 min 32 s | 1.68 GiB
Subtitles: English
Genre: Azione, Crime, Dramma

Blindspot è una serie televisiva statunitense creata da Martin Gero con protagonisti Jaimie Alexander e Sullivan Stapleton. La serie è trasmessa sulla NBC dal 21 settembre 2015. Il 9 novembre 2015 la serie è stata rinnovata per una seconda stagione.
In Italia, la prima stagione è trasmessa in prima visione su Italia 1, ma il primo episodio è stato trasmesso in contemporanea anche su: Italia 2, Topcrime, La 5 e Mediaset Extra; il 10 maggio 2016, per poi proseguire con gli altri episodi solo sulla rete principale.

23d30f9c83cf4e43a6f1bcd77b8e729c.mkv (1.7 GB)



General
Unique ID : 241382344334142477727032268661611338250 (0xB5988C6A7E29D2E8B8F58B156BD49A0A)
Complete name : ./23d30f9c83cf4e43a6f1bcd77b8e729c.mkv
Format : Matroska
Format version : Version 4 / Version 2
File size : 1.68 GiB
Duration : 42 min 32 s
Overall bit rate : 5 645 kb/s
Encoded date : UTC 2018-05-05 15:58:27
Writing application : mkvmerge v10.0.0 ('To Drown In You') 64bit
Writing library : libebml v1.3.4 + libmatroska v1.4.5

Video
ID : 1
Format : AVC
Format/Info : Advanced Video Codec
Format profile : High@L4.1
Format settings : CABAC / 9 Ref Frames
Format settings, CABAC : Yes
Format settings, RefFrames : 9 frames
Codec ID : V_MPEG4/ISO/AVC
Duration : 42 min 32 s
Bit rate : 5 002 kb/s
Width : 1 280 pixels
Height : 720 pixels
Display aspect ratio : 16:9
Frame rate mode : Constant
Frame rate : 23.976 (24000/1001) FPS
Color space : YUV
Chroma subsampling : 4:2:0
Bit depth : 8 bits
Scan type : Progressive
Bits/(Pixel*Frame) : 0.226
Stream size : 1.49 GiB (89%)
Writing library : x264 core 148 r2744 b97ae06
Encoding settings : cabac=1 / ref=9 / deblock=1:-3:-3 / analyse=0x3:0x133 / me=umh / subme=10 / psy=1 / psy_rd=1.00:0.00 / mixed_ref=1 / me_range=48 / chroma_me=1 / trellis=2 / 8x8dct=1 / cqm=0 / deadzone=21,11 / fast_pskip=0 / chroma_qp_offset=-2 / threads=12 / lookahead_threads=2 / sliced_threads=0 / nr=0 / decimate=0 / interlaced=0 / bluray_compat=0 / constrained_intra=0 / bframes=9 / b_pyramid=0 / b_adapt=2 / b_bias=0 / direct=3 / weightb=1 / open_gop=0 / weightp=2 / keyint=240 / keyint_min=23 / scenecut=40 / intra_refresh=0 / rc_lookahead=60 / rc=crf / mbtree=0 / crf=17.0 / qcomp=0.60 / qpmin=10 / qpmax=51 / qpstep=4 / vbv_maxrate=62500 / vbv_bufsize=78125 / crf_max=0.0 / nal_hrd=none / filler=0 / ip_ratio=1.40 / pb_ratio=1.30 / aq=3:0.70
Default : Yes
Forced : No

Audio
ID : 2
Format : E-AC-3
Format/Info : Enhanced Audio Coding 3
Format settings, Endianness : Big
Codec ID : A_EAC3
Duration : 42 min 32 s
Bit rate mode : Constant
Bit rate : 640 kb/s
Channel(s) : 6 channels
Channel positions : Front: L C R, Side: L R, LFE
Sampling rate : 48.0 kHz
Frame rate : 187.500 FPS (256 SPF)
Compression mode : Lossy
Stream size : 195 MiB (11%)
Language : English
Service kind : Complete Main
Default : Yes
Forced : No

Text #1
ID : 3
Format : UTF-8
Codec ID : S_TEXT/UTF8
Codec ID/Info : UTF-8 Plain Text
Duration : 42 min 22 s
Bit rate : 88 b/s
Count of elements : 900
Stream size : 27.3 KiB (0%)
Language : English
Default : No
Forced : No

Text #2
ID : 4
Format : UTF-8
Codec ID : S_TEXT/UTF8
Codec ID/Info : UTF-8 Plain Text
Duration : 42 min 22 s
Bit rate : 92 b/s
Count of elements : 962
Stream size : 28.8 KiB (0%)
Title : SDH
Language : English
Default : No
Forced : No





Blindspot S03E20


Blindspot S03E20


Blindspot S03E20


Blindspot S03E20


Blindspot S03E20

All episodes