Index
# A B C D E F G H I J K L M N O P Q R S T U V W X Y Z
Tags
Language
Tags
May 2024
Su Mo Tu We Th Fr Sa
28 29 30 1 2 3 4
5 6 7 8 9 10 11
12 13 14 15 16 17 18
19 20 21 22 23 24 25
26 27 28 29 30 31 1

Featured TV Shows


Blindspot S03E21

Posted By: Tavaz
SD / BDRip IMDb
Blindspot S03E21

Blindspot S03E21
BDRip | MKV | 720x404 | German | H264 @ 843 kbps | AC-3 @ 384 kbps | 43 min 9 s | 379 MiB
Genre: Action, Krimi, Drama

Eine unbekannte Frau ohne Erinnerungen – Jane Doe (Jaimie Alexander) – entsteigt auf dem belebten Times Square in New York City nackt einem Dufflebag. Auf ihrem Körper findet sich ein großflächiges Tattoo. Darin finden Experten bald einen verwirrenden Hinweis: Den Namen Kurt Weller, der einem FBI Agenten gehört (gespielt von Sullivan Stapleton). Ebenfalls bald offensichtlich wird, dass jedes Teil des Tattoos auf ein Verbrechen hinweist, das zu lösen ist. So machen sich Jane und das FBI an die Aufklärung und auf die Suche nach einer Auflösung von Janes rätselhafter Herkunft – und damit mitten hinein in eine großangelegte, internationale Verschwörung.

S03E21.mkv (379.3 MB)



General
Unique ID : 192835040579674946584675884254779565991 (0x9112AD8AB85F78A0B9F825C734CA67A7)
Complete name : ./BS Tattoos S03E21 German/S03E21.mkv
Format : Matroska
Format version : Version 4 / Version 2
File size : 379 MiB
Duration : 43 min 9 s
Overall bit rate : 1 229 kb/s
Encoded date : UTC 2018-11-19 15:18:54
Writing application : mkvmerge v8.3.0 ('Over the Horizon') 64bit
Writing library : libebml v1.3.1 + libmatroska v1.4.2

Video
ID : 1
Format : AVC
Format/Info : Advanced Video Codec
Format profile : High@L3.1
Format settings : CABAC / 5 Ref Frames
Format settings, CABAC : Yes
Format settings, RefFrames : 5 frames
Codec ID : V_MPEG4/ISO/AVC
Duration : 43 min 9 s
Bit rate : 843 kb/s
Width : 720 pixels
Height : 404 pixels
Display aspect ratio : 16:9
Frame rate mode : Constant
Frame rate : 23.976 (24000/1001) FPS
Color space : YUV
Chroma subsampling : 4:2:0
Bit depth : 8 bits
Scan type : Progressive
Bits/(Pixel*Frame) : 0.121
Stream size : 260 MiB (69%)
Writing library : x264 core 155 r2901 7d0ff22
Encoding settings : cabac=1 / ref=5 / deblock=1:-3:-3 / analyse=0x3:0x113 / me=umh / subme=8 / psy=1 / psy_rd=1.00:0.15 / mixed_ref=1 / me_range=24 / chroma_me=1 / trellis=2 / 8x8dct=1 / cqm=0 / deadzone=21,11 / fast_pskip=1 / chroma_qp_offset=-3 / threads=13 / lookahead_threads=2 / sliced_threads=0 / nr=0 / decimate=1 / interlaced=0 / bluray_compat=0 / constrained_intra=0 / bframes=3 / b_pyramid=2 / b_adapt=1 / b_bias=0 / direct=3 / weightb=1 / open_gop=0 / weightp=2 / keyint=240 / keyint_min=24 / scenecut=40 / intra_refresh=0 / rc_lookahead=50 / rc=crf / mbtree=1 / crf=19.0 / qcomp=0.60 / qpmin=0 / qpmax=69 / qpstep=4 / ip_ratio=1.40 / aq=1:0.80
Default : Yes
Forced : No
Color range : Limited
Matrix coefficients : BT.709

Audio
ID : 2
Format : AC-3
Format/Info : Audio Coding 3
Format settings, Endianness : Big
Codec ID : A_AC3
Duration : 43 min 9 s
Bit rate mode : Constant
Bit rate : 384 kb/s
Channel(s) : 6 channels
Channel positions : Front: L C R, Side: L R, LFE
Sampling rate : 48.0 kHz
Frame rate : 31.250 FPS (1536 SPF)
Bit depth : 16 bits
Compression mode : Lossy
Stream size : 119 MiB (31%)
Language : German
Service kind : Complete Main
Default : Yes
Forced : No

Menu
00:00:00.000 : en:00:00:00.000
00:08:24.379 : en:00:08:24.379
00:17:22.500 : en:00:17:22.500
00:23:50.137 : en:00:23:50.137
00:28:46.391 : en:00:28:46.391
00:34:36.741 : en:00:34:36.741
00:42:30.965 : en:00:42:30.965





Blindspot S03E21


Blindspot S03E21


Blindspot S03E21


Blindspot S03E21


Blindspot S03E21

All episodes