Index
# A B C D E F G H I J K L M N O P Q R S T U V W Y Z
Tags
Language
Tags

Featured TV Shows


Blindspot S03E22

Posted By: Tavaz
1080p (FullHD) / BDRip IMDb
Blindspot S03E22

Blindspot S03E22
BluRay Remux | MKV | 1920x1080 | English | H264 @ 19841 kbps | DTS | 43 min 3 s | 7.15 GiB
Subtitles: English
Genre: Crime, Drama


A vast international plot explodes when a beautiful Jane Doe is discovered naked in Times Square, completely covered in mysterious, intricate tattoos with no memory of who she is or how she got there. But there's one tattoo that is impossible to miss: the name of FBI agent Kurt Weller, emblazoned across her back. "Jane," Agent Weller and the rest of the FBI quickly realize that each mark on her body is a crime to solve, leading them closer to the truth about her identity and the mysteries to be revealed.

3ad1864c0e4b4436a4cd94abbd6b62f0.mkv (7.1 GB)



General
Unique ID : 324671532874381133884594847591572442493 (0xF44176752A190C62001DA6C1FA9C0D7D)
Complete name : ./3ad1864c0e4b4436a4cd94abbd6b62f0.mkv
Format : Matroska
Format version : Version 4 / Version 2
File size : 7.15 GiB
Duration : 43 min 3 s
Overall bit rate mode : Variable
Overall bit rate : 23.8 Mb/s
Encoded date : UTC 2018-08-26 20:50:11
Writing application : mkvmerge v25.0.0 ('Prog Noir') 64-bit
Writing library : libebml v1.3.6 + libmatroska v1.4.9

Video
ID : 1
Format : AVC
Format/Info : Advanced Video Codec
Format profile : High@L4.1
Format settings : CABAC / 4 Ref Frames
Format settings, CABAC : Yes
Format settings, RefFrames : 4 frames
Codec ID : V_MPEG4/ISO/AVC
Duration : 43 min 3 s
Bit rate mode : Variable
Bit rate : 19.8 Mb/s
Maximum bit rate : 38.0 Mb/s
Width : 1 920 pixels
Height : 1 080 pixels
Display aspect ratio : 16:9
Frame rate mode : Constant
Frame rate : 23.976 (24000/1001) FPS
Color space : YUV
Chroma subsampling : 4:2:0
Bit depth : 8 bits
Scan type : Progressive
Bits/(Pixel*Frame) : 0.399
Stream size : 5.97 GiB (83%)
Title : MPEG-4 AVC Video / 19987 kbps / 1080p / 23.976 fps / 16:9 / High Profile 4.1
Language : English
Default : Yes
Forced : No

Audio
ID : 2
Format : DTS
Format/Info : Digital Theater Systems
Format profile : MA / Core
Mode : 16
Format settings, Endianness : Big
Codec ID : A_DTS
Duration : 43 min 3 s
Bit rate mode : Variable / Constant
Bit rate : 3 840 kb/s / 1 509 kb/s
Channel(s) : 6 channels
Channel positions : Front: L C R, Side: L R, LFE
Sampling rate : 48.0 kHz
Frame rate : 93.750 FPS (512 SPF)
Bit depth : 24 bits
Compression mode : Lossless / Lossy
Stream size : 1.15 GiB (16%)
Title : DTS-HD Master Audio / 5.1 / 48 kHz / 3821 kbps / 24-bit
Language : English
Default : Yes
Forced : No

Text
ID : 3
Format : PGS
Codec ID : S_HDMV/PGS
Codec ID/Info : Picture based subtitle format used on BDs/HD-DVDs
Duration : 42 min 53 s
Bit rate : 102 kb/s
Count of elements : 1746
Stream size : 31.2 MiB (0%)
Title : SDH
Language : English
Default : No
Forced : No

Menu
00:00:00.000 : en:Chapter 1
00:05:56.147 : en:Chapter 2
00:12:23.284 : en:Chapter 3
00:18:12.842 : en:Chapter 4
00:24:51.907 : en:Chapter 5
00:29:50.497 : en:Chapter 6
00:42:25.960 : en:Chapter 7





Blindspot S03E22


Blindspot S03E22


Blindspot S03E22


Blindspot S03E22


Blindspot S03E22

All episodes