Index
# A B C D E F G H I J K L M N O P Q R S T U V W Y Z
Tags
Language
Tags

Featured TV Shows


Blindspot S04E08

Posted By: Tavaz
1080p (FullHD) / WEBRip IMDb
Blindspot S04E08

Blindspot S04E08
WEBRip | MKV | 1920x1080 | English | H264 @ 7356 kbps | E-AC-3 @ 640 kbps | 42 min 50 s | 2.39 GiB
Subtitles: English
Genre: Action, Crime, Drama

A vast international plot explodes when a beautiful Jane Doe is discovered naked in Times Square, completely covered in mysterious, intricate tattoos with no memory of who she is or how she got there. But there's one tattoo that is impossible to miss: the name of FBI agent Kurt Weller, emblazoned across her back. "Jane," Agent Weller and the rest of the FBI quickly realize that each mark on her body is a crime to solve, leading them closer to the truth about her identity and the mysteries to be revealed.

0fd964ff10c54c8c857a6d529e082fc5.mkv (2.4 GB)



General
Unique ID : 93698226094292847771470461648363807683 (0x467D9F3745013D5943E97B6670B763C3)
Complete name : ./0fd964ff10c54c8c857a6d529e082fc5.mkv
Format : Matroska
Format version : Version 4 / Version 2
File size : 2.39 GiB
Duration : 42 min 50 s
Overall bit rate : 7 998 kb/s
Encoded date : UTC 2018-12-08 08:01:16
Writing application : mkvmerge v28.2.0 ('The Awakening') 64-bit
Writing library : libebml v1.3.6 + libmatroska v1.4.9

Video
ID : 1
Format : AVC
Format/Info : Advanced Video Codec
Format profile : High@L4
Format settings : CABAC / 4 Ref Frames
Format settings, CABAC : Yes
Format settings, RefFrames : 4 frames
Codec ID : V_MPEG4/ISO/AVC
Duration : 42 min 50 s
Bit rate : 7 356 kb/s
Width : 1 920 pixels
Height : 1 080 pixels
Display aspect ratio : 16:9
Frame rate mode : Constant
Frame rate : 23.976 (24000/1001) FPS
Color space : YUV
Chroma subsampling : 4:2:0
Bit depth : 8 bits
Scan type : Progressive
Bits/(Pixel*Frame) : 0.148
Stream size : 2.20 GiB (92%)
Language : English
Default : Yes
Forced : No
Color range : Limited
Color primaries : BT.709
Transfer characteristics : BT.709
Matrix coefficients : BT.709

Audio
ID : 2
Format : E-AC-3
Format/Info : Enhanced Audio Coding 3
Format settings, Endianness : Big
Codec ID : A_EAC3
Duration : 42 min 50 s
Bit rate mode : Constant
Bit rate : 640 kb/s
Channel(s) : 6 channels
Channel positions : Front: L C R, Side: L R, LFE
Sampling rate : 48.0 kHz
Frame rate : 187.500 FPS (256 SPF)
Compression mode : Lossy
Stream size : 196 MiB (8%)
Language : English
Service kind : Complete Main
Default : Yes
Forced : No

Text
ID : 3
Format : UTF-8
Codec ID : S_TEXT/UTF8
Codec ID/Info : UTF-8 Plain Text
Duration : 42 min 41 s
Bit rate : 100 b/s
Count of elements : 951
Stream size : 31.5 KiB (0%)
Language : English
Default : No
Forced : No





Blindspot S04E08


Blindspot S04E08


Blindspot S04E08


Blindspot S04E08


Blindspot S04E08

All episodes