Index
# A B C D E F G H I J K L M N O P Q R S T U V W Y Z
Tags
Language
Tags

Featured TV Shows


Blindspot S04E14

Posted By: Tavaz
720p (HD) / WEBRip IMDb
Blindspot S04E14

Blindspot S04E14
WEBRip | MKV | 1280x720 | German | H264 @ 4786 kbps | AC-3 @ 192 kbps | 41 min 9 s | 1.43 GiB
Genre: Action, Krimi, Drama


Eine unbekannte Frau ohne Erinnerungen – Jane Doe (Jaimie Alexander) – entsteigt auf dem belebten Times Square in New York City nackt einem Dufflebag. Auf ihrem Körper findet sich ein großflächiges Tattoo. Darin finden Experten bald einen verwirrenden Hinweis: Den Namen Kurt Weller, der einem FBI Agenten gehört (gespielt von Sullivan Stapleton). Ebenfalls bald offensichtlich wird, dass jedes Teil des Tattoos auf ein Verbrechen hinweist, das zu lösen ist. So machen sich Jane und das FBI an die Aufklärung und auf die Suche nach einer Auflösung von Janes rätselhafter Herkunft – und damit mitten hinein in eine großangelegte, internationale Verschwörung.

BS S04E14 German HD.mkv (1.4 GB)



General
Unique ID : 277485047915614370177670714082115443446 (0xD0C1AD2158182143BE0074FF0FBBDAF6)
Complete name : ./BS Tattoos S04E14 German HD/BS S04E14 German HD.mkv
Format : Matroska
Format version : Version 4 / Version 2
File size : 1.43 GiB
Duration : 41 min 9 s
Overall bit rate mode : Constant
Overall bit rate : 4 981 kb/s
Movie name : Blindspot.S04E14.GERMAN.DUBBED.720p.WEB.h264-idTV
Encoded date : UTC 2019-08-11 07:17:46
Writing application : mkvmerge v19.0.0 ('Brave Captain') 64-bit
Writing library : libebml v1.3.5 + libmatroska v1.4.8

Video
ID : 1
Format : AVC
Format/Info : Advanced Video Codec
Format profile : High@L3.1
Format settings : CABAC / 4 Ref Frames
Format settings, CABAC : Yes
Format settings, RefFrames : 4 frames
Codec ID : V_MPEG4/ISO/AVC
Duration : 41 min 9 s
Bit rate mode : Constant
Bit rate : 4 787 kb/s
Nominal bit rate : 6 000 kb/s
Width : 1 280 pixels
Height : 720 pixels
Display aspect ratio : 16:9
Frame rate mode : Constant
Frame rate : 25.000 FPS
Original frame rate : 23.976 (24000/1001) FPS
Color space : YUV
Chroma subsampling : 4:2:0
Bit depth : 8 bits
Scan type : Progressive
Bits/(Pixel*Frame) : 0.208
Stream size : 1.38 GiB (96%)
Default : Yes
Forced : No
Color range : Limited
Color primaries : BT.709
Transfer characteristics : BT.709
Matrix coefficients : BT.709

Audio
ID : 2
Format : AC-3
Format/Info : Audio Coding 3
Format settings, Endianness : Big
Codec ID : A_AC3
Duration : 41 min 9 s
Bit rate mode : Constant
Bit rate : 192 kb/s
Channel(s) : 2 channels
Channel positions : Front: L R
Sampling rate : 48.0 kHz
Frame rate : 31.250 FPS (1536 SPF)
Bit depth : 16 bits
Compression mode : Lossy
Stream size : 56.5 MiB (4%)
Language : German
Service kind : Complete Main
Default : Yes
Forced : Yes





Blindspot S04E14


Blindspot S04E14


Blindspot S04E14


Blindspot S04E14


Blindspot S04E14

All episodes