Index
# A B C D E F G H I J K L M N O P Q R S T U V W Y Z
Tags
Language
Tags

Featured TV Shows


Blindspot S04E21

Posted By: Tavaz
1080p (FullHD) / BDRip IMDb
Blindspot S04E21

Blindspot S04E21
BluRay Remux | MKV | 1920x1080 | English | H264 @ 24787 kbps | DTS | 42 min 49 s | 8.54 GiB
Subtitles: English
Genre: Crime, Drama


A vast international plot explodes when a beautiful Jane Doe is discovered naked in Times Square, completely covered in mysterious, intricate tattoos with no memory of who she is or how she got there. But there's one tattoo that is impossible to miss: the name of FBI agent Kurt Weller, emblazoned across her back. "Jane," Agent Weller and the rest of the FBI quickly realize that each mark on her body is a crime to solve, leading them closer to the truth about her identity and the mysteries to be revealed.

Blindspot.S04E21.Masters.of.War.15-8.1080p.BluRay.REMUX.AVC.DTS-HD.MA.5.1-EPSiLON.part1.rar (4.5 GB)
Blindspot.S04E21.Masters.of.War.15-8.1080p.BluRay.REMUX.AVC.DTS-HD.MA.5.1-EPSiLON.part2.rar (4.1 GB)



General
Unique ID : 296056083222298985868032119877101102278 (0xDEBA53DCE92F6A1D8A89ED66278724C6)
Complete name : ./df60fbc6fac1c7c06fefb9740c23db09.mkv
Format : Matroska
Format version : Version 4 / Version 2
File size : 8.54 GiB
Duration : 42 min 49 s
Overall bit rate mode : Variable
Overall bit rate : 28.6 Mb/s
Movie name : Blindspot - S04E21 - Masters of War 1:5 - 8
Track name/Position : 21
Track name/Total : 22
Encoded date : UTC 2019-11-14 23:13:25
Writing application : mkvmerge v34.0.0 ('Sight and Seen') 64-bit
Writing library : libebml v1.3.9 + libmatroska v1.5.2
IMDB : tt10081534
TMDB : tv/62710
TVDB : 295647

Video
ID : 1
Format : AVC
Format/Info : Advanced Video Codec
Format profile : High@L4.1
Format settings : CABAC / 4 Ref Frames
Format settings, CABAC : Yes
Format settings, RefFrames : 4 frames
Codec ID : V_MPEG4/ISO/AVC
Duration : 42 min 49 s
Bit rate mode : Variable
Bit rate : 24.8 Mb/s
Maximum bit rate : 38.0 Mb/s
Width : 1 920 pixels
Height : 1 080 pixels
Display aspect ratio : 16:9
Frame rate mode : Constant
Frame rate : 23.976 (24000/1001) FPS
Color space : YUV
Chroma subsampling : 4:2:0
Bit depth : 8 bits
Scan type : Progressive
Bits/(Pixel*Frame) : 0.499
Stream size : 7.41 GiB (87%)
Title : MPEG-4 AVC Video / 23995 kbps / 1080p / 23.976 fps / 16:9 / High Profile 4.1
Language : English
Default : Yes
Forced : No

Audio
ID : 2
Format : DTS
Format/Info : Digital Theater Systems
Format profile : MA / Core
Mode : 16
Format settings, Endianness : Big
Codec ID : A_DTS
Duration : 42 min 49 s
Bit rate mode : Variable / Constant
Bit rate : 3 715 kb/s / 1 509 kb/s
Channel(s) : 6 channels
Channel positions : Front: L C R, Side: L R, LFE
Sampling rate : 48.0 kHz
Frame rate : 93.750 FPS (512 SPF)
Bit depth : 24 bits
Compression mode : Lossless / Lossy
Stream size : 1.11 GiB (13%)
Title : DTS-HD Master Audio / 5.1 / 48 kHz / 3715 kbps / 24-bit
Language : English
Default : Yes
Forced : No

Text
ID : 3
Format : PGS
Codec ID : S_HDMV/PGS
Codec ID/Info : Picture based subtitle format used on BDs/HD-DVDs
Duration : 42 min 42 s
Bit rate : 58.8 kb/s
Count of elements : 1992
Stream size : 18.0 MiB (0%)
Title : SDH
Language : English
Default : No
Forced : No

Menu
00:00:00.000 : en:Chapter 1
00:06:37.772 : en:Chapter 2
00:14:22.945 : en:Chapter 3
00:25:03.210 : en:Chapter 4
00:31:27.260 : en:Chapter 5
00:36:43.159 : en:Chapter 6
00:42:12.321 : en:Chapter 7





Blindspot S04E21


Blindspot S04E21


Blindspot S04E21


Blindspot S04E21


Blindspot S04E21

All episodes