Index
# A B C D E F G H I J K L M N O P Q R S T U V W Y Z
Tags
Language
Tags

Featured TV Shows


Blindspot S05E02

Posted By: Tavaz
1080p (FullHD) / WEB-DL IMDb
Blindspot S05E02

Blindspot S05E02
WEB-DL | MKV | 1920x1080 | English | H264 @ 8521 kbps | E-AC-3 @ 640 kbps | 42 min 22 s | 2.71 GiB
Subtitles: English
Genre: Action, Crime, Drama


A vast international plot explodes when a beautiful Jane Doe is discovered naked in Times Square, completely covered in mysterious, intricate tattoos with no memory of who she is or how she got there. But there's one tattoo that is impossible to miss: the name of FBI agent Kurt Weller, emblazoned across her back. "Jane," Agent Weller and the rest of the FBI quickly realize that each mark on her body is a crime to solve, leading them closer to the truth about her identity and the mysteries to be revealed.

9e123f3a0b7645fcb1f4c90c2b091efc.mkv (2.7 GB)



General
Unique ID : 131079383829603657864056626928868658739 (0x629CF896235CFBFA94622CBAD9100E33)
Complete name : ./9e123f3a0b7645fcb1f4c90c2b091efc.mkv
Format : Matroska
Format version : Version 4 / Version 2
File size : 2.71 GiB
Duration : 42 min 22 s
Overall bit rate : 9 164 kb/s
Encoded date : UTC 2020-05-15 08:53:11
Writing application : mkvmerge v45.0.0 ('Heaven in Pennies') 64-bit
Writing library : libebml v1.3.10 + libmatroska v1.5.2

Video
ID : 1
Format : AVC
Format/Info : Advanced Video Codec
Format profile : High@L4
Format settings : CABAC / 4 Ref Frames
Format settings, CABAC : Yes
Format settings, RefFrames : 4 frames
Codec ID : V_MPEG4/ISO/AVC
Duration : 42 min 22 s
Bit rate mode : Constant
Bit rate : 8 522 kb/s
Nominal bit rate : 10 000 kb/s
Width : 1 920 pixels
Height : 1 080 pixels
Display aspect ratio : 16:9
Frame rate mode : Constant
Frame rate : 23.976 (24000/1001) FPS
Color space : YUV
Chroma subsampling : 4:2:0
Bit depth : 8 bits
Scan type : Progressive
Bits/(Pixel*Frame) : 0.171
Stream size : 2.52 GiB (93%)
Default : Yes
Forced : No
Color range : Limited
Color primaries : BT.709
Transfer characteristics : BT.709
Matrix coefficients : BT.709

Audio
ID : 2
Format : E-AC-3
Format/Info : Enhanced Audio Coding 3
Format settings, Endianness : Big
Codec ID : A_EAC3
Duration : 42 min 22 s
Bit rate mode : Constant
Bit rate : 640 kb/s
Channel(s) : 6 channels
Channel positions : Front: L C R, Side: L R, LFE
Sampling rate : 48.0 kHz
Frame rate : 187.500 FPS (256 SPF)
Compression mode : Lossy
Stream size : 194 MiB (7%)
Language : English
Service kind : Complete Main
Default : Yes
Forced : No

Text
ID : 3
Format : UTF-8
Codec ID : S_TEXT/UTF8
Codec ID/Info : UTF-8 Plain Text
Duration : 42 min 14 s
Bit rate : 103 b/s
Count of elements : 1073
Stream size : 32.0 KiB (0%)
Title : SDH
Language : English
Default : No
Forced : No





Blindspot S05E02


Blindspot S05E02


Blindspot S05E02


Blindspot S05E02


Blindspot S05E02

All episodes