Index
# A B C D E F G H I J K L M N O P Q R S T U V W Y Z
Tags
Language
Tags

Featured TV Shows


Blindspot S05E07

Posted By: Tavaz
1080p (FullHD) / WEB-DL IMDb
Blindspot S05E07

Blindspot S05E07
WEB-DL | MKV | 1920x1080 | English | H264 @ 7479 kbps | E-AC-3 @ 640 kbps | 42 min 42 s | 2.42 GiB
Subtitles: English
Genre: Aksi, Kejahatan, Drama


Blindspot adalah serial televisi drama kriminal Amerika Serikat yang diciptakan oleh Martin Gero, dibintangi oleh Sullivan Stapleton dan Jaimie Alexander. Serial ini ditayangkan pada 21 September 2015.

70634406376246649d99adb42b8a3654.mkv (2.4 GB)



General
Unique ID : 212875631677045160116647286711640923103 (0xA0265AF81166EAE298507C9145801BDF)
Complete name : ./70634406376246649d99adb42b8a3654.mkv
Format : Matroska
Format version : Version 4 / Version 2
File size : 2.42 GiB
Duration : 42 min 42 s
Overall bit rate : 8 121 kb/s
Encoded date : UTC 2020-06-26 07:12:46
Writing application : mkvmerge v45.0.0 ('Heaven in Pennies') 64-bit
Writing library : libebml v1.3.10 + libmatroska v1.5.2

Video
ID : 1
Format : AVC
Format/Info : Advanced Video Codec
Format profile : High@L4
Format settings : CABAC / 4 Ref Frames
Format settings, CABAC : Yes
Format settings, RefFrames : 4 frames
Codec ID : V_MPEG4/ISO/AVC
Duration : 42 min 42 s
Bit rate mode : Constant
Bit rate : 7 479 kb/s
Nominal bit rate : 10 000 kb/s
Width : 1 920 pixels
Height : 1 080 pixels
Display aspect ratio : 16:9
Frame rate mode : Constant
Frame rate : 23.976 (24000/1001) FPS
Color space : YUV
Chroma subsampling : 4:2:0
Bit depth : 8 bits
Scan type : Progressive
Bits/(Pixel*Frame) : 0.150
Stream size : 2.23 GiB (92%)
Default : Yes
Forced : No
Color range : Limited
Color primaries : BT.709
Transfer characteristics : BT.709
Matrix coefficients : BT.709

Audio
ID : 2
Format : E-AC-3
Format/Info : Enhanced Audio Coding 3
Format settings, Endianness : Big
Codec ID : A_EAC3
Duration : 42 min 42 s
Bit rate mode : Constant
Bit rate : 640 kb/s
Channel(s) : 6 channels
Channel positions : Front: L C R, Side: L R, LFE
Sampling rate : 48.0 kHz
Frame rate : 187.500 FPS (256 SPF)
Compression mode : Lossy
Stream size : 195 MiB (8%)
Language : English
Service kind : Complete Main
Default : Yes
Forced : No

Text
ID : 3
Format : UTF-8
Codec ID : S_TEXT/UTF8
Codec ID/Info : UTF-8 Plain Text
Duration : 42 min 33 s
Bit rate : 95 b/s
Count of elements : 904
Stream size : 29.7 KiB (0%)
Title : SDH
Language : English
Default : No
Forced : No





Blindspot S05E07


Blindspot S05E07


Blindspot S05E07


Blindspot S05E07


Blindspot S05E07

All episodes