Index
# A B C D E F G H I J K L M N O P Q R S T U V W Y Z
Tags
Language
Tags

Featured TV Shows


Blue Mountain State S03E13

Posted By: Tavaz
1080p (FullHD) / WEB-DL IMDb
Blue Mountain State S03E13

Blue Mountain State S03E13
WEB-DL | MKV | 1920x1080 | English | H264 @ 8538 kbps | E-AC-3 @ 640 kbps | 21 min 31 s | 1.38 GiB
Subtitles: English
Genre: Comedy


Three incoming freshman in a big-time, Midwestern college football program have to juggle football, girls, class and nonstop hazing.

baa05b88fabc42539272cfb4fa5e2987.mkv (1.4 GB)



General
Unique ID : 242686816548624346293084436137289772830 (0xB693C7DC9AA35724A0ACA576BB10EF1E)
Complete name : ./baa05b88fabc42539272cfb4fa5e2987.mkv
Format : Matroska
Format version : Version 4 / Version 2
File size : 1.38 GiB
Duration : 21 min 31 s
Overall bit rate : 9 181 kb/s
Encoded date : UTC 2020-08-29 03:23:14
Writing application : mkvmerge v41.0.0 ('Smarra') 64-bit
Writing library : libebml v1.3.9 + libmatroska v1.5.2

Video
ID : 1
Format : AVC
Format/Info : Advanced Video Codec
Format profile : High@L4
Format settings : CABAC / 4 Ref Frames
Format settings, CABAC : Yes
Format settings, RefFrames : 4 frames
Codec ID : V_MPEG4/ISO/AVC
Duration : 21 min 31 s
Bit rate mode : Constant
Bit rate : 8 539 kb/s
Nominal bit rate : 10 000 kb/s
Width : 1 920 pixels
Height : 1 080 pixels
Display aspect ratio : 16:9
Frame rate mode : Constant
Frame rate : 23.976 (24000/1001) FPS
Color space : YUV
Chroma subsampling : 4:2:0
Bit depth : 8 bits
Scan type : Progressive
Bits/(Pixel*Frame) : 0.172
Stream size : 1.28 GiB (93%)
Default : Yes
Forced : No
Color range : Limited
Color primaries : BT.709
Transfer characteristics : BT.709
Matrix coefficients : BT.709

Audio
ID : 2
Format : E-AC-3
Format/Info : Enhanced Audio Coding 3
Format settings, Endianness : Big
Codec ID : A_EAC3
Duration : 21 min 31 s
Bit rate mode : Constant
Bit rate : 640 kb/s
Channel(s) : 6 channels
Channel positions : Front: L C R, Side: L R, LFE
Sampling rate : 48.0 kHz
Frame rate : 187.500 FPS (256 SPF)
Compression mode : Lossy
Stream size : 98.5 MiB (7%)
Language : English
Service kind : Complete Main
Default : Yes
Forced : No

Text #1
ID : 3
Format : UTF-8
Codec ID : S_TEXT/UTF8
Codec ID/Info : UTF-8 Plain Text
Duration : 20 min 37 s
Bit rate : 56 b/s
Count of elements : 297
Stream size : 8.51 KiB (0%)
Language : English
Default : No
Forced : No

Text #2
ID : 4
Format : UTF-8
Codec ID : S_TEXT/UTF8
Codec ID/Info : UTF-8 Plain Text
Duration : 20 min 40 s
Bit rate : 60 b/s
Count of elements : 333
Stream size : 9.17 KiB (0%)
Title : SDH
Language : English
Default : No
Forced : No

Menu
00:00:00.000 : en:Previously On
00:00:42.000 : en:Opening Credits
00:01:14.000 : en:Scene 3
00:06:24.000 : en:Scene 4
00:13:24.000 : en:Scene 5
00:20:52.000 : en:End Credits





Blue Mountain State S03E13


Blue Mountain State S03E13


Blue Mountain State S03E13


Blue Mountain State S03E13


Blue Mountain State S03E13

All episodes