Featured TV Shows


Boardwalk Empire S01E08

Posted By: Tavaz
1080p (FullHD) / BDRip IMDb
Boardwalk Empire S01E08

Boardwalk Empire S01E08
BDRip | MKV | 1920x1080 | German | H264 @ 7828 kbps | AC-3 @ 640 kbps | 49 min 31 s | 2.93 GiB
Subtitles: German
Genre: Crime, Drama

Boardwalk Empire is a period drama focusing on Enoch "Nucky" Thompson (based on the historical Enoch L. Johnson), a political figure who rose to prominence and controlled Atlantic City, New Jersey, during the Prohibition period of the 1920s and 1930s. Nucky interacts with several historical figures in both his personal and political life, including mobsters, politicians, government agents, and the common folk who look up to him. The federal government also takes an interest in the bootlegging and other illegal activities in the area, sending agents to investigate possible mob connections but also looking at Nucky's lifestyle—expensive and lavish for a county political figure.

Primetime Emmy Award-winning screenwriter and producer Terence Winter adapted the show from Boardwalk Empire: The Birth, High Times, and Corruption of Atlantic City, a book by Nelson Johnson about historical criminal kingpin Enoch L. Johnson.

UnRAR.exe (299.6 KB)
12.04.2017.1 (2.9 GB)
win_click2rename.bat (45 bytes)
a_Linux_2rename.sh (42 bytes)



General
Unique ID : 193871673313035912907341827351775206613 (0x91DA537B4D8D83C580D8B772695EDCD5)
Complete name : ./12.04.2017.1
Format : Matroska
Format version : Version 2
File size : 2.93 GiB
Duration : 49 min 31 s
Overall bit rate : 8 477 kb/s
Encoded date : UTC 2012-02-15 18:45:35
Writing application : mkvmerge v5.3.0 ('I could have danced') built on Feb 9 2012 10:38:07
Writing library : libebml v1.2.3 + libmatroska v1.3.0
FileExtension_Invalid : mkv mk3d mka mks

Video
ID : 1
Format : AVC
Format/Info : Advanced Video Codec
Format profile : High@L4.1
Format settings : CABAC / 5 Ref Frames
Format settings, CABAC : Yes
Format settings, RefFrames : 5 frames
Codec ID : V_MPEG4/ISO/AVC
Duration : 49 min 31 s
Bit rate : 7 828 kb/s
Width : 1 920 pixels
Height : 1 080 pixels
Display aspect ratio : 16:9
Frame rate mode : Constant
Frame rate : 23.976 (24000/1001) FPS
Color space : YUV
Chroma subsampling : 4:2:0
Bit depth : 8 bits
Scan type : Progressive
Bits/(Pixel*Frame) : 0.157
Stream size : 2.65 GiB (90%)
Writing library : x264 core 120 r2164 da19765
Encoding settings : cabac=1 / ref=5 / deblock=1:-1:-1 / analyse=0x3:0x113 / me=hex / subme=7 / psy=1 / psy_rd=1.00:0.15 / mixed_ref=1 / me_range=16 / chroma_me=1 / trellis=1 / 8x8dct=1 / cqm=0 / deadzone=21,11 / fast_pskip=0 / chroma_qp_offset=-3 / threads=12 / sliced_threads=0 / nr=0 / decimate=1 / interlaced=0 / bluray_compat=0 / constrained_intra=0 / bframes=3 / b_pyramid=2 / b_adapt=1 / b_bias=0 / direct=1 / weightb=1 / open_gop=0 / weightp=1 / keyint=250 / keyint_min=23 / scenecut=40 / intra_refresh=0 / rc_lookahead=30 / rc=2pass / mbtree=1 / bitrate=7828 / ratetol=1.0 / qcomp=0.60 / qpmin=0 / qpmax=69 / qpstep=4 / cplxblur=20.0 / qblur=0.5 / ip_ratio=1.40 / aq=1:1.00
Default : Yes
Forced : No

Audio
ID : 2
Format : AC-3
Format/Info : Audio Coding 3
Format settings, Endianness : Big
Codec ID : A_AC3
Duration : 49 min 31 s
Bit rate mode : Constant
Bit rate : 640 kb/s
Channel(s) : 6 channels
Channel positions : Front: L C R, Side: L R, LFE
Sampling rate : 48.0 kHz
Frame rate : 31.250 FPS (1536 SPF)
Bit depth : 16 bits
Compression mode : Lossy
Stream size : 227 MiB (8%)
Language : German
Service kind : Complete Main
Default : Yes
Forced : No

Text
ID : 3
Format : UTF-8
Codec ID : S_TEXT/UTF8
Codec ID/Info : UTF-8 Plain Text
Title : forced
Language : German
Default : Yes
Forced : No





Boardwalk Empire S01E08


Boardwalk Empire S01E08


Boardwalk Empire S01E08


Boardwalk Empire S01E08


Boardwalk Empire S01E08

All episodes