Featured TV Shows


Boardwalk Empire S02E02

Posted By: Tavaz
Boardwalk Empire S02E02

Boardwalk Empire S02E02
MKV | 1280x720 | English | H264 @ 2200 kbps | AC-3 @ 384 kbps | 58 min 9 s | 1.05 GiB
Genre: Crime, Drama

Boardwalk Empire is a period drama focusing on Enoch "Nucky" Thompson (based on the historical Enoch L. Johnson), a political figure who rose to prominence and controlled Atlantic City, New Jersey, during the Prohibition period of the 1920s and 1930s. Nucky interacts with several historical figures in both his personal and political life, including mobsters, politicians, government agents, and the common folk who look up to him. The federal government also takes an interest in the bootlegging and other illegal activities in the area, sending agents to investigate possible mob connections but also looking at Nucky's lifestyle—expensive and lavish for a county political figure.

Primetime Emmy Award-winning screenwriter and producer Terence Winter adapted the show from Boardwalk Empire: The Birth, High Times, and Corruption of Atlantic City, a book by Nelson Johnson about historical criminal kingpin Enoch L. Johnson.

7334bfb978dc4b5cad19f855dbaa7816.mkv (1.1 GB)



General
Unique ID : 212506500349140941912789455574679242804 (0x9FDF4363B13E98028B58938691154834)
Complete name : ./7334bfb978dc4b5cad19f855dbaa7816.mkv
Format : Matroska
Format version : Version 4 / Version 2
File size : 1.05 GiB
Duration : 58 min 9 s
Overall bit rate mode : Variable
Overall bit rate : 2 585 kb/s
Movie name : Boardwalk Empire S02E02 720p Bluray DD5 1 x264-DON
Encoded date : UTC 2016-08-28 07:45:40
Writing application : mkvmerge v9.3.1 ('Mask Machine') 32bit
Writing library : libebml v1.3.4 + libmatroska v1.4.5

Video
ID : 1
Format : AVC
Format/Info : Advanced Video Codec
Format profile : High@L4.1
Format settings : CABAC / 5 Ref Frames
Format settings, CABAC : Yes
Format settings, RefFrames : 5 frames
Codec ID : V_MPEG4/ISO/AVC
Duration : 58 min 9 s
Bit rate mode : Variable
Bit rate : 2 200 kb/s
Maximum bit rate : 62.5 Mb/s
Width : 1 280 pixels
Height : 720 pixels
Display aspect ratio : 16:9
Frame rate mode : Constant
Frame rate : 23.976 (24000/1001) FPS
Color space : YUV
Chroma subsampling : 4:2:0
Bit depth : 8 bits
Scan type : Progressive
Bits/(Pixel*Frame) : 0.100
Stream size : 915 MiB (85%)
Writing library : x264 core 148 r2694 3b70645
Encoding settings : cabac=1 / ref=5 / deblock=1:-1:-1 / analyse=0x3:0x113 / me=umh / subme=8 / psy=1 / psy_rd=1.00:0.15 / mixed_ref=1 / me_range=16 / chroma_me=1 / trellis=1 / 8x8dct=1 / cqm=0 / deadzone=21,11 / fast_pskip=1 / chroma_qp_offset=-3 / threads=18 / lookahead_threads=3 / sliced_threads=0 / nr=0 / decimate=1 / interlaced=0 / bluray_compat=0 / constrained_intra=0 / bframes=3 / b_pyramid=2 / b_adapt=2 / b_bias=0 / direct=3 / weightb=1 / open_gop=0 / weightp=2 / keyint=240 / keyint_min=24 / scenecut=40 / intra_refresh=0 / rc_lookahead=50 / rc=2pass / mbtree=1 / bitrate=2200 / ratetol=1.0 / qcomp=0.60 / qpmin=0 / qpmax=69 / qpstep=4 / cplxblur=20.0 / qblur=0.5 / vbv_maxrate=62500 / vbv_bufsize=62500 / nal_hrd=vbr / filler=0 / ip_ratio=1.40 / aq=1:1.00
Default : Yes
Forced : No

Audio
ID : 2
Format : AC-3
Format/Info : Audio Coding 3
Format settings, Endianness : Big
Codec ID : A_AC3
Duration : 58 min 9 s
Bit rate mode : Constant
Bit rate : 384 kb/s
Channel(s) : 6 channels
Channel positions : Front: L C R, Side: L R, LFE
Sampling rate : 48.0 kHz
Frame rate : 31.250 FPS (1536 SPF)
Bit depth : 16 bits
Compression mode : Lossy
Stream size : 160 MiB (15%)
Language : English
Service kind : Complete Main
Default : Yes
Forced : No

Menu
00:00:00.000 : en:00:00:00.000
00:01:39.099 : en:00:01:39.099
00:06:43.862 : en:00:06:43.862
00:15:34.892 : en:00:15:34.892
00:23:34.204 : en:00:23:34.204
00:33:26.546 : en:00:33:26.546
00:45:12.627 : en:00:45:12.627
00:56:52.409 : en:00:56:52.409





Boardwalk Empire S02E02


Boardwalk Empire S02E02


Boardwalk Empire S02E02


Boardwalk Empire S02E02


Boardwalk Empire S02E02

All episodes