Featured TV Shows


Boardwalk Empire S02E04

Posted By: Tavaz
1080p (FullHD) / BDRip IMDb
Boardwalk Empire S02E04

Boardwalk Empire S02E04
BDRip | MKV | 1920x1080 | English | H265 @ 2003 kbps | AAC @ 192 kbps | 57 min 26 s | 908 MiB
Subtitles: Arabic, English
Genre: Crime, Drama

Boardwalk Empire is a period drama focusing on Enoch "Nucky" Thompson (based on the historical Enoch L. Johnson), a political figure who rose to prominence and controlled Atlantic City, New Jersey, during the Prohibition period of the 1920s and 1930s. Nucky interacts with several historical figures in both his personal and political life, including mobsters, politicians, government agents, and the common folk who look up to him. The federal government also takes an interest in the bootlegging and other illegal activities in the area, sending agents to investigate possible mob connections but also looking at Nucky's lifestyle‚ÄĒexpensive and lavish for a county political figure.

Primetime Emmy Award-winning screenwriter and producer Terence Winter adapted the show from Boardwalk Empire: The Birth, High Times, and Corruption of Atlantic City, a book by Nelson Johnson about historical criminal kingpin Enoch L. Johnson.

383b11d2aa5246a592060cde0511cde8.mkv (908.2 MB)



General
Complete name : ./383b11d2aa5246a592060cde0511cde8.mkv
Format : Matroska
Format version : Version 4 / Version 2
File size : 908 MiB
Duration : 57 min 26 s
Overall bit rate : 2 210 kb/s
Encoded date : UTC 2017-10-07 07:52:30
Writing application : mkvmerge v13.0.0 ('The Juggler') 64bit
Writing library : libebml v1.3.4 + libmatroska v1.4.5

Video
ID : 1
Format : HEVC
Format/Info : High Efficiency Video Coding
Format profile : Main 10@L4@Main
Codec ID : V_MPEGH/ISO/HEVC
Duration : 57 min 26 s
Bit rate : 2 003 kb/s
Width : 1 920 pixels
Height : 1 080 pixels
Display aspect ratio : 16:9
Frame rate mode : Constant
Frame rate : 23.976 (24000/1001) FPS
Original frame rate : 23.976 (23976/1000) FPS
Color space : YUV
Chroma subsampling : 4:2:0
Bit depth : 10 bits
Bits/(Pixel*Frame) : 0.040
Stream size : 823 MiB (91%)
Title : HEVC x265 10bit Video / 2000 kbps / 1080p / 23.976 fps / Main 10 Profile 4
Writing library : x265 1.9:[Linux][GCC 4.6.2][64 bit] 10bit
Encoding settings : wpp / ctu=64 / min-cu-size=8 / max-tu-size=32 / tu-intra-depth=1 / tu-inter-depth=1 / me=3 / subme=3 / merange=57 / rect / no-amp / max-merge=3 / temporal-mvp / no-early-skip / rdpenalty=0 / no-tskip / no-tskip-fast / strong-intra-smoothing / no-lossless / no-cu-lossless / no-constrained-intra / no-fast-intra / no-open-gop / no-temporal-layers / interlace=0 / keyint=250 / min-keyint=23 / scenecut=0 / rc-lookahead=25 / lookahead-slices=4 / bframes=4 / bframe-bias=0 / b-adapt=2 / ref=3 / limit-refs=3 / limit-modes / weightp / no-weightb / aq-mode=1 / qg-size=32 / aq-strength=1.00 / cbqpoffs=0 / crqpoffs=0 / rd=4 / psy-rd=2.00 / rdoq-level=2 / psy-rdoq=1.00 / signhide / deblock / sao / no-sao-non-deblock / b-pyramid / cutree / no-intra-refresh / rc=2 / pass / bitrate=2000 / qcomp=0.60 / qpmin=0 / qpmax=51 / qpstep=4 / cplxblur=20.0 / qblur=0.5 / ipratio=1.40 / pbratio=1.30
Default : Yes
Forced : No

Audio
ID : 2
Format : AAC
Format/Info : Advanced Audio Codec
Format profile : HE-AAC / LC
Format settings : Explicit
Codec ID : A_AAC-2
Duration : 57 min 26 s
Bit rate : 192 kb/s
Channel(s) : 6 channels
Channel positions : Front: L C R, Side: L R, LFE
Sampling rate : 48.0 kHz / 24.0 kHz
Frame rate : 23.438 FPS (1024 SPF)
Compression mode : Lossy
Delay relative to video : 40 ms
Stream size : 78.9 MiB (9%)
Title : HE-AAC / 5.1 / 48 kHz / 192 kbps
Language : English
Default : Yes
Forced : No

Text #1
ID : 3
Format : PGS
Muxing mode : zlib
Codec ID : S_HDMV/PGS
Codec ID/Info : Picture based subtitle format used on BDs/HD-DVDs
Duration : 54 min 22 s
Bit rate : 43.7 kb/s
Count of elements : 1674
Stream size : 17.0 MiB (2%)
Language : English
Default : No
Forced : No

Text #2
ID : 4
Format : UTF-8
Codec ID : S_TEXT/UTF8
Codec ID/Info : UTF-8 Plain Text
Duration : 54 min 20 s
Bit rate : 89 b/s
Count of elements : 787
Stream size : 35.4 KiB (0%)
Language : Arabic
Default : No
Forced : No

Menu
00:00:00.000 : en:00:00:00.000
00:01:39.099 : en:00:01:39.099
00:09:27.275 : en:00:09:27.275
00:17:09.612 : en:00:17:09.612
00:27:19.179 : en:00:27:19.179
00:34:13.843 : en:00:34:13.843
00:45:31.729 : en:00:45:31.729
00:56:08.782 : en:00:56:08.782





Boardwalk Empire S02E04


Boardwalk Empire S02E04


Boardwalk Empire S02E04


Boardwalk Empire S02E04


Boardwalk Empire S02E04

All episodes