Featured TV Shows


The Middle S01E01

Posted By: Tavaz
1080p (FullHD) / BDRip IMDb
The Middle S01E01

The Middle S01E01
BluRay Remux | MKV | 1920x1080 | Danish | H264 @ 17469 kbps | DTS | 1 h 0 min | 8.04 GiB
Subtitles: English
Genre: Comedy


The daily mishaps of a married woman and her semi-dysfunctional family and their attempts to survive life in general in the city of Orson, Indiana.

Borgen.S01E01.Decency.in.the.Middle.1080p.BluRay.REMUX.AVC.DTS-HD.MA.5.1-EPSiLON-WhiteRev=618b1e63aaafac945f0c09230e6e92f79a22405d.part1.rar (4.2 GB)
Borgen.S01E01.Decency.in.the.Middle.1080p.BluRay.REMUX.AVC.DTS-HD.MA.5.1-EPSiLON-WhiteRev=618b1e63aaafac945f0c09230e6e92f79a22405d.part2.rar (3.9 GB)



General
Unique ID : 225429006355981372613442060820805071836 (0xA9980C2045D90A77F01B930FF12833DC)
Complete name : ./d7653bea786d4642b1b4958f718dc1e6.mkv
Format : Matroska
Format version : Version 4 / Version 2
File size : 8.04 GiB
Duration : 1 h 0 min
Overall bit rate mode : Variable
Overall bit rate : 18.9 Mb/s
Movie name : Borgen - S01E01 - Decency in the Middle
Track name/Position : 1
Track name/Total : 10
Encoded date : UTC 2019-08-03 06:33:33
Writing application : mkvmerge v35.0.0 ('All The Love In The World') 64-bit
Writing library : libebml v1.3.9 + libmatroska v1.5.2
IMDB : tt1670744
TMDB : tv/42445
TVDB : 193261

Video
ID : 1
Format : AVC
Format/Info : Advanced Video Codec
Format profile : High@L4.1
Format settings : CABAC / 2 Ref Frames
Format settings, CABAC : Yes
Format settings, RefFrames : 2 frames
Format settings, GOP : M=1, N=10
Codec ID : V_MPEG4/ISO/AVC
Duration : 1 h 0 min
Bit rate mode : Variable
Bit rate : 17.5 Mb/s
Width : 1 920 pixels
Height : 1 080 pixels
Display aspect ratio : 16:9
Frame rate mode : Constant
Frame rate : 23.976 (24000/1001) FPS
Color space : YUV
Chroma subsampling : 4:2:0
Bit depth : 8 bits
Scan type : Progressive
Bits/(Pixel*Frame) : 0.351
Stream size : 7.42 GiB (92%)
Title : MPEG-4 AVC Video / 17469 kbps / 1080p / 23.976 fps / 16:9 / High Profile 4.1
Language : Danish
Default : Yes
Forced : No

Audio
ID : 2
Format : DTS
Format/Info : Digital Theater Systems
Format profile : MA / Core
Mode : 16
Format settings, Endianness : Big
Codec ID : A_DTS
Duration : 1 h 0 min
Bit rate mode : Variable / Constant
Bit rate : 1 411.2 kb/s / 768 kb/s
Channel(s) : 6 channels
Channel positions : Front: L C R, Side: L R, LFE
Sampling rate : 48.0 kHz
Frame rate : 93.750 FPS (512 SPF)
Bit depth : 16 bits
Compression mode : Lossless / Lossy
Stream size : 618 MiB (7%)
Title : DTS-HD Master Audio / 5.1 / 48 kHz / 1420 kbps / 16-bit
Language : Danish
Default : Yes
Forced : No

Text
ID : 3
Format : PGS
Codec ID : S_HDMV/PGS
Codec ID/Info : Picture based subtitle format used on BDs/HD-DVDs
Duration : 59 min 43 s
Bit rate : 52.3 kb/s
Count of elements : 1706
Stream size : 22.3 MiB (0%)
Language : English
Default : Yes
Forced : No

Menu
00:00:00.000 : en:Chapter 1
00:11:50.585 : en:Chapter 2
00:20:31.981 : en:Chapter 3
00:32:55.807 : en:Chapter 4
00:42:26.252 : en:Chapter 5





The Middle S01E01


The Middle S01E01


The Middle S01E01


The Middle S01E01


The Middle S01E01

All episodes