Featured TV Shows


Breathe: Into the Shadows S01 [FULL SEASON]

Posted By: Tavaz
1080p (FullHD) / WEB-DL IMDb
Breathe: Into the Shadows S01 [FULL SEASON]

Breathe: Into the Shadows
WEB-DL | MKV | 1920x1080 | हिन्दी | H264 @ 7890 kbps | E-AC-3 @ 640 kbps | 57 min 42 s | 12 x 3.44 GiB
Subtitles: ภาษาไทย, Français, Español, 日本語, עברית, 한국어, Русский, Bahasa Indonesia, Dansk, Nederlands, Bokmål, 中文, Suomi, Polski, Türkçe, English, हिन्दी, العربية, Deutsch, Svenska, Italiano, Português
Genre: Crime, Drama, Mystery

A 6-year old girl is kidnapped by a mysterious masked man, who demands an unusual ransom. To save his daughter, Dr. Avinash Sabharwal must kill someone! Meanwhile, Kabir Sawant's journey continues in the hostile environment of the Delhi Crime branch. Lies, deceit and mind games begin when Kabir is given charge of the investigation, and meets Avinash.

Breathe Into the Shadows S01E01.mkv (2.8 GB)
Breathe Into the Shadows S01E10.mkv (2.5 GB)
Breathe Into the Shadows S01E12.mkv (3.4 GB)
Breathe Into the Shadows S01E03.mkv (2.4 GB)
Breathe Into the Shadows S01E02.mkv (1.8 GB)
Breathe Into the Shadows S01E07.mkv (2.7 GB)
Breathe Into the Shadows S01E08.mkv (2.8 GB)
Breathe Into the Shadows S01E06.mkv (2.8 GB)
Breathe Into the Shadows S01E11.mkv (2.7 GB)
Breathe Into the Shadows S01E09.mkv (3.0 GB)
Breathe Into the Shadows S01E04.mkv (2.6 GB)
Breathe Into the Shadows S01E05.mkv (2.8 GB)



General
Unique ID : 155245841589857149911144504765417766144 (0x74CB42F20DD05649D307C93CCC0FBD00)
Complete name : ./Breathe Into the Shadows S01.2020.1080p/Breathe Into the Shadows S01E12.mkv
Format : Matroska
Format version : Version 4 / Version 2
File size : 3.44 GiB
Duration : 57 min 42 s
Overall bit rate : 8 535 kb/s
Encoded date : UTC 2020-07-09 14:55:28
Writing application : mkvmerge v43.0.0 ('The Quartermaster') 64-bit
Writing library : libebml v1.3.10 + libmatroska v1.5.2

Video
ID : 1
Format : AVC
Format/Info : Advanced Video Codec
Format profile : High@L4
Format settings : CABAC / 4 Ref Frames
Format settings, CABAC : Yes
Format settings, RefFrames : 4 frames
Codec ID : V_MPEG4/ISO/AVC
Duration : 57 min 42 s
Bit rate mode : Constant
Bit rate : 7 890 kb/s
Nominal bit rate : 10 000 kb/s
Width : 1 920 pixels
Height : 1 080 pixels
Display aspect ratio : 16:9
Frame rate mode : Constant
Frame rate : 25.000 FPS
Color space : YUV
Chroma subsampling : 4:2:0
Bit depth : 8 bits
Scan type : Progressive
Bits/(Pixel*Frame) : 0.152
Stream size : 3.18 GiB (92%)
Default : Yes
Forced : No
Color range : Limited
Color primaries : BT.709
Transfer characteristics : BT.709
Matrix coefficients : BT.709

Audio
ID : 2
Format : E-AC-3
Format/Info : Enhanced Audio Coding 3
Format settings, Endianness : Big
Codec ID : A_EAC3
Duration : 57 min 42 s
Bit rate mode : Constant
Bit rate : 640 kb/s
Channel(s) : 6 channels
Channel positions : Front: L C R, Side: L R, LFE
Sampling rate : 48.0 kHz
Frame rate : 187.500 FPS (256 SPF)
Compression mode : Lossy
Stream size : 264 MiB (7%)
Title : Hindi
Language : Hindi
Service kind : Complete Main
Default : No
Forced : No

Text #1
ID : 3
Format : UTF-8
Codec ID : S_TEXT/UTF8
Codec ID/Info : UTF-8 Plain Text
Duration : 57 min 33 s
Bit rate : 31 b/s
Count of elements : 521
Stream size : 13.3 KiB (0%)
Title : Malay
Language : Malay
Default : No
Forced : No

Text #2
ID : 4
Format : UTF-8
Codec ID : S_TEXT/UTF8
Codec ID/Info : UTF-8 Plain Text
Duration : 57 min 33 s
Bit rate : 32 b/s
Count of elements : 520
Stream size : 13.6 KiB (0%)
Title : Danish
Language : Danish
Default : No
Forced : No

Text #3
ID : 5
Format : UTF-8
Codec ID : S_TEXT/UTF8
Codec ID/Info : UTF-8 Plain Text
Duration : 54 min 34 s
Bit rate : 31 b/s
Count of elements : 432
Stream size : 12.5 KiB (0%)
Title : German
Language : German
Default : No
Forced : No

Text #4
ID : 6
Format : UTF-8
Codec ID : S_TEXT/UTF8
Codec ID/Info : UTF-8 Plain Text
Duration : 54 min 35 s
Bit rate : 25 b/s
Count of elements : 369
Stream size : 10.2 KiB (0%)
Title : English
Language : English
Default : No
Forced : No

Text #5
ID : 7
Format : UTF-8
Codec ID : S_TEXT/UTF8
Codec ID/Info : UTF-8 Plain Text
Duration : 57 min 33 s
Bit rate : 32 b/s
Count of elements : 522
Stream size : 13.6 KiB (0%)
Title : Castilian
Language : Spanish
Default : No
Forced : No

Text #6
ID : 8
Format : UTF-8
Codec ID : S_TEXT/UTF8
Codec ID/Info : UTF-8 Plain Text
Duration : 57 min 33 s
Bit rate : 29 b/s
Count of elements : 521
Stream size : 12.3 KiB (0%)
Title : Spanish
Language : Spanish
Default : No
Forced : No

Text #7
ID : 9
Format : UTF-8
Codec ID : S_TEXT/UTF8
Codec ID/Info : UTF-8 Plain Text
Duration : 57 min 33 s
Bit rate : 31 b/s
Count of elements : 492
Stream size : 13.3 KiB (0%)
Title : French
Language : French
Default : No
Forced : No

Text #8
ID : 10
Format : UTF-8
Codec ID : S_TEXT/UTF8
Codec ID/Info : UTF-8 Plain Text
Duration : 57 min 33 s
Bit rate : 30 b/s
Count of elements : 522
Stream size : 12.8 KiB (0%)
Title : Indonesian
Language : Indonesian
Default : No
Forced : No

Text #9
ID : 11
Format : UTF-8
Codec ID : S_TEXT/UTF8
Codec ID/Info : UTF-8 Plain Text
Duration : 57 min 33 s
Bit rate : 33 b/s
Count of elements : 521
Stream size : 14.1 KiB (0%)
Title : Italian
Language : Italian
Default : No
Forced : No

Text #10
ID : 12
Format : UTF-8
Codec ID : S_TEXT/UTF8
Codec ID/Info : UTF-8 Plain Text
Duration : 57 min 33 s
Bit rate : 30 b/s
Count of elements : 519
Stream size : 12.7 KiB (0%)
Title : Dutch
Language : Dutch
Default : No
Forced : No

Text #11
ID : 13
Format : UTF-8
Codec ID : S_TEXT/UTF8
Codec ID/Info : UTF-8 Plain Text
Duration : 57 min 33 s
Bit rate : 30 b/s
Count of elements : 521
Stream size : 13.0 KiB (0%)
Title : Norwegian
Language : Norwegian Bokmal
Default : No
Forced : No

Text #12
ID : 14
Format : UTF-8
Codec ID : S_TEXT/UTF8
Codec ID/Info : UTF-8 Plain Text
Duration : 57 min 33 s
Bit rate : 28 b/s
Count of elements : 495
Stream size : 12.1 KiB (0%)
Title : Polish
Language : Polish
Default : No
Forced : No

Text #13
ID : 15
Format : UTF-8
Codec ID : S_TEXT/UTF8
Codec ID/Info : UTF-8 Plain Text
Duration : 57 min 33 s
Bit rate : 33 b/s
Count of elements : 522
Stream size : 14.1 KiB (0%)
Title : Portuguese (Brasil)
Language : Portuguese
Default : No
Forced : No

Text #14
ID : 16
Format : UTF-8
Codec ID : S_TEXT/UTF8
Codec ID/Info : UTF-8 Plain Text
Duration : 57 min 33 s
Bit rate : 30 b/s
Count of elements : 520
Stream size : 12.7 KiB (0%)
Title : Portuguese (Portugal)
Language : Portuguese
Default : No
Forced : No

Text #15
ID : 17
Format : UTF-8
Codec ID : S_TEXT/UTF8
Codec ID/Info : UTF-8 Plain Text
Duration : 57 min 33 s
Bit rate : 28 b/s
Count of elements : 524
Stream size : 12.0 KiB (0%)
Title : Finnish
Language : Finnish
Default : No
Forced : No

Text #16
ID : 18
Format : UTF-8
Codec ID : S_TEXT/UTF8
Codec ID/Info : UTF-8 Plain Text
Duration : 57 min 33 s
Bit rate : 29 b/s
Count of elements : 501
Stream size : 12.3 KiB (0%)
Title : Swedish
Language : Swedish
Default : No
Forced : No

Text #17
ID : 19
Format : UTF-8
Codec ID : S_TEXT/UTF8
Codec ID/Info : UTF-8 Plain Text
Duration : 57 min 33 s
Bit rate : 29 b/s
Count of elements : 522
Stream size : 12.3 KiB (0%)
Title : Turkish
Language : Turkish
Default : No
Forced : No

Text #18
ID : 20
Format : UTF-8
Codec ID : S_TEXT/UTF8
Codec ID/Info : UTF-8 Plain Text
Duration : 57 min 33 s
Bit rate : 55 b/s
Count of elements : 525
Stream size : 23.2 KiB (0%)
Title : Russian
Language : Russian
Default : No
Forced : No

Text #19
ID : 21
Format : UTF-8
Codec ID : S_TEXT/UTF8
Codec ID/Info : UTF-8 Plain Text
Duration : 57 min 33 s
Bit rate : 51 b/s
Count of elements : 526
Stream size : 21.6 KiB (0%)
Title : Hebrew
Language : Hebrew
Default : No
Forced : No

Text #20
ID : 22
Format : UTF-8
Codec ID : S_TEXT/UTF8
Codec ID/Info : UTF-8 Plain Text
Duration : 57 min 33 s
Bit rate : 55 b/s
Count of elements : 526
Stream size : 23.3 KiB (0%)
Title : Arabic
Language : Arabic
Default : No
Forced : No

Text #21
ID : 23
Format : UTF-8
Codec ID : S_TEXT/UTF8
Codec ID/Info : UTF-8 Plain Text
Duration : 54 min 59 s
Bit rate : 111 b/s
Count of elements : 580
Stream size : 44.9 KiB (0%)
Title : Hindi (SDH)
Language : Hindi
Default : No
Forced : No

Text #22
ID : 24
Format : UTF-8
Codec ID : S_TEXT/UTF8
Codec ID/Info : UTF-8 Plain Text
Duration : 57 min 33 s
Bit rate : 83 b/s
Count of elements : 526
Stream size : 35.3 KiB (0%)
Title : Tamil
Language : Tamil
Default : No
Forced : No

Text #23
ID : 25
Format : UTF-8
Codec ID : S_TEXT/UTF8
Codec ID/Info : UTF-8 Plain Text
Duration : 57 min 33 s
Bit rate : 81 b/s
Count of elements : 526
Stream size : 34.5 KiB (0%)
Title : Telugu
Language : Telugu
Default : No
Forced : No

Text #24
ID : 26
Format : UTF-8
Codec ID : S_TEXT/UTF8
Codec ID/Info : UTF-8 Plain Text
Duration : 57 min 33 s
Bit rate : 75 b/s
Count of elements : 526
Stream size : 31.8 KiB (0%)
Title : Thai
Language : Thai
Default : No
Forced : No

Text #25
ID : 27
Format : UTF-8
Codec ID : S_TEXT/UTF8
Codec ID/Info : UTF-8 Plain Text
Duration : 57 min 33 s
Bit rate : 29 b/s
Count of elements : 525
Stream size : 12.6 KiB (0%)
Title : Chinese (Simplified)
Language : Chinese
Default : No
Forced : No

Text #26
ID : 28
Format : UTF-8
Codec ID : S_TEXT/UTF8
Codec ID/Info : UTF-8 Plain Text
Duration : 57 min 33 s
Bit rate : 28 b/s
Count of elements : 524
Stream size : 12.1 KiB (0%)
Title : Chinese (Traditional)
Language : Chinese
Default : No
Forced : No

Text #27
ID : 29
Format : UTF-8
Codec ID : S_TEXT/UTF8
Codec ID/Info : UTF-8 Plain Text
Duration : 57 min 33 s
Bit rate : 31 b/s
Count of elements : 552
Stream size : 13.2 KiB (0%)
Title : Japanese
Language : Japanese
Default : No
Forced : No

Text #28
ID : 30
Format : UTF-8
Codec ID : S_TEXT/UTF8
Codec ID/Info : UTF-8 Plain Text
Duration : 57 min 33 s
Bit rate : 41 b/s
Count of elements : 525
Stream size : 17.5 KiB (0%)
Title : Korean
Language : Korean
Default : No
Forced : No





Breathe: Into the Shadows S01 [FULL SEASON]


Breathe: Into the Shadows S01 [FULL SEASON]


Breathe: Into the Shadows S01 [FULL SEASON]


Breathe: Into the Shadows S01 [FULL SEASON]


Breathe: Into the Shadows S01 [FULL SEASON]

All episodes