Index
# A B C D E F G H I J K L M N O P Q R S T U V W Y Z
Tags
Language
Tags

Featured TV Shows


Breeders S01E02

Posted By: Tavaz
1080p (FullHD) / WEBRip IMDb
Breeders S01E02

Breeders S01E02
WEBRip | MKV | 1920x1080 | H264 @ 3272 kbps | E-AC-3 @ 256 kbps | 26 min 20 s | 665 MiB
Subtitles: English
Genre: Comedy


Breeders exposes the parental-paradox that it is possible, in the very same moment, to love your child to the horizon of the universe, while being apoplectically angry enough to want to send them there.

666d0a79648f42948b7b562207f1a425.mkv (665.2 MB)



General
Unique ID : 158865375160907459985000807635865552200 (0x77845BBA85F9FAF2E185E857C483C548)
Complete name : ./666d0a79648f42948b7b562207f1a425.mkv
Format : Matroska
Format version : Version 4 / Version 2
File size : 665 MiB
Duration : 26 min 20 s
Overall bit rate : 3 530 kb/s
Encoded date : UTC 2020-04-14 13:30:38
Writing application : mkvmerge v43.0.0.12 ('The Quartermaster') 64-bit
Writing library : libebml v1.3.9 + libmatroska v1.5.2

Video
ID : 1
Format : AVC
Format/Info : Advanced Video Codec
Format profile : High@L4
Format settings : CABAC / 4 Ref Frames
Format settings, CABAC : Yes
Format settings, RefFrames : 4 frames
Codec ID : V_MPEG4/ISO/AVC
Duration : 26 min 20 s
Bit rate : 3 272 kb/s
Width : 1 920 pixels
Height : 1 080 pixels
Display aspect ratio : 16:9
Frame rate mode : Constant
Frame rate : 23.976 (24000/1001) FPS
Color space : YUV
Chroma subsampling : 4:2:0
Bit depth : 8 bits
Scan type : Progressive
Bits/(Pixel*Frame) : 0.066
Stream size : 617 MiB (93%)
Default : Yes
Forced : No

Audio
ID : 2
Format : E-AC-3
Format/Info : Enhanced Audio Coding 3
Format settings, Endianness : Big
Codec ID : A_EAC3
Duration : 26 min 20 s
Bit rate mode : Constant
Bit rate : 256 kb/s
Channel(s) : 6 channels
Channel positions : Front: L C R, Side: L R, LFE
Sampling rate : 48.0 kHz
Frame rate : 187.500 FPS (256 SPF)
Compression mode : Lossy
Stream size : 48.2 MiB (7%)
Service kind : Complete Main
Default : Yes
Forced : No

Text
ID : 3
Format : UTF-8
Codec ID : S_TEXT/UTF8
Codec ID/Info : UTF-8 Plain Text
Duration : 25 min 36 s
Bit rate : 128 b/s
Count of elements : 757
Stream size : 24.1 KiB (0%)
Language : English
Default : No
Forced : No





Breeders S01E02


Breeders S01E02


Breeders S01E02


Breeders S01E02


Breeders S01E02

All episodes