Index
# A B C D E F G H I J K L M N O P Q R S T U V W Y Z
Tags
Language
Tags

Featured TV Shows


Breeders S01E04

Posted By: Tavaz
1080p (FullHD) / WEBRip IMDb
Breeders S01E04

Breeders S01E04
WEBRip | MKV | 1920x1080 | English | H264 @ 2862 kbps | E-AC-3 @ 256 kbps | 25 min 9 s | 561 MiB
Subtitles: English
Genre: Comedy


Breeders exposes the parental-paradox that it is possible, in the very same moment, to love your child to the horizon of the universe, while being apoplectically angry enough to want to send them there.

6b270a0467af4d719f28bd47d56dc254.mkv (561.4 MB)



General
Unique ID : 27042433118245129741819474636782173426 (0x14582EE44DFA49E7FCEF1D981BEBFCF2)
Complete name : ./6b270a0467af4d719f28bd47d56dc254.mkv
Format : Matroska
Format version : Version 4 / Version 2
File size : 561 MiB
Duration : 25 min 9 s
Overall bit rate : 3 120 kb/s
Encoded date : UTC 2020-03-17 07:00:26
Writing application : mkvmerge v44.0.0 ('Domino') 64-bit
Writing library : libebml v1.3.10 + libmatroska v1.5.2

Video
ID : 1
Format : AVC
Format/Info : Advanced Video Codec
Format profile : High@L4
Format settings : CABAC / 4 Ref Frames
Format settings, CABAC : Yes
Format settings, RefFrames : 4 frames
Codec ID : V_MPEG4/ISO/AVC
Duration : 25 min 9 s
Bit rate : 2 862 kb/s
Width : 1 920 pixels
Height : 1 080 pixels
Display aspect ratio : 16:9
Frame rate mode : Constant
Frame rate : 23.976 (24000/1001) FPS
Color space : YUV
Chroma subsampling : 4:2:0
Bit depth : 8 bits
Scan type : Progressive
Bits/(Pixel*Frame) : 0.058
Stream size : 515 MiB (92%)
Language : English
Default : Yes
Forced : No

Audio
ID : 2
Format : E-AC-3
Format/Info : Enhanced Audio Coding 3
Format settings, Endianness : Big
Codec ID : A_EAC3
Duration : 25 min 9 s
Bit rate mode : Constant
Bit rate : 256 kb/s
Channel(s) : 6 channels
Channel positions : Front: L C R, Side: L R, LFE
Sampling rate : 48.0 kHz
Frame rate : 187.500 FPS (256 SPF)
Compression mode : Lossy
Stream size : 46.1 MiB (8%)
Language : English
Service kind : Complete Main
Default : Yes
Forced : No

Text
ID : 3
Format : UTF-8
Codec ID : S_TEXT/UTF8
Codec ID/Info : UTF-8 Plain Text
Duration : 24 min 6 s
Bit rate : 113 b/s
Count of elements : 641
Stream size : 20.0 KiB (0%)
Title : English
Language : English
Default : No
Forced : No





Breeders S01E04


Breeders S01E04


Breeders S01E04


Breeders S01E04


Breeders S01E04

All episodes