Index
# A B C D E F G H I J K L M N O P Q R S T U V W Y Z
Tags
Language
Tags

Featured TV Shows


Breeders S01E04

Posted By: Tavaz
720p (HD) / WEBRip IMDb
Breeders S01E04

Breeders S01E04
WEBRip | MKV | 1280x720 | Français / English | H264 @ 3400 kbps | AAC @ 128 kbps | 23 min 55 s | 607 MiB
Subtitles: Français
Genre: Comedy, Family


Breeders exposes the parental-paradox that it is possible, in the very same moment, to love your child to the horizon of the universe, while being apoplectically angry enough to want to send them there.

46ff831871ee4da98c42a11f7f92cef9.mkv (606.7 MB)



General
Unique ID : 303148894179728817252150059950168192183 (0xE4105A7145190C94396DB82A9BD9B4B7)
Complete name : ./46ff831871ee4da98c42a11f7f92cef9.mkv
Format : Matroska
Format version : Version 4 / Version 2
File size : 607 MiB
Duration : 23 min 55 s
Overall bit rate : 3 545 kb/s
Encoded date : UTC 2020-06-21 22:13:52
Writing application : mkvmerge v47.0.0 ('Black Flag') 64-bit
Writing library : libebml v1.3.10 + libmatroska v1.5.2

Video
ID : 1
Format : AVC
Format/Info : Advanced Video Codec
Format profile : High@L3.1
Format settings : CABAC / 2 Ref Frames
Format settings, CABAC : Yes
Format settings, RefFrames : 2 frames
Format settings, GOP : M=1, N=50
Codec ID : V_MPEG4/ISO/AVC
Duration : 23 min 55 s
Bit rate mode : Constant
Bit rate : 3 400 kb/s
Width : 1 280 pixels
Height : 720 pixels
Display aspect ratio : 16:9
Frame rate mode : Constant
Frame rate : 25.000 FPS
Color space : YUV
Chroma subsampling : 4:2:0
Bit depth : 8 bits
Scan type : Progressive
Bits/(Pixel*Frame) : 0.148
Stream size : 562 MiB (93%)
Default : Yes
Forced : No
Color range : Limited
Color primaries : BT.709
Transfer characteristics : BT.709
Matrix coefficients : BT.709

Audio #1
ID : 2
Format : AAC
Format/Info : Advanced Audio Codec
Format profile : LC
Codec ID : A_AAC-2
Duration : 23 min 55 s
Bit rate : 128 kb/s
Channel(s) : 2 channels
Channel positions : Front: L R
Sampling rate : 48.0 kHz
Frame rate : 46.875 FPS (1024 SPF)
Compression mode : Lossy
Stream size : 21.9 MiB (4%)
Title : French
Language : French
Default : Yes
Forced : No

Audio #2
ID : 3
Format : AAC
Format/Info : Advanced Audio Codec
Format profile : LC
Codec ID : A_AAC-2
Duration : 23 min 55 s
Bit rate : 128 kb/s
Channel(s) : 2 channels
Channel positions : Front: L R
Sampling rate : 48.0 kHz
Frame rate : 46.875 FPS (1024 SPF)
Compression mode : Lossy
Stream size : 21.9 MiB (4%)
Title : English
Language : English
Default : No
Forced : No

Text
ID : 4
Format : UTF-8
Codec ID : S_TEXT/UTF8
Codec ID/Info : UTF-8 Plain Text
Duration : 23 min 20 s
Bit rate : 81 b/s
Count of elements : 477
Stream size : 14.0 KiB (0%)
Title : French
Language : French
Default : No
Forced : No





Breeders S01E04


Breeders S01E04


Breeders S01E04


Breeders S01E04


Breeders S01E04

All episodes