Index
# A B C D E F G H I J K L M N O P Q R S T U V W Y Z
Tags
Language
Tags

Featured TV Shows


Breeders S01E05

Posted By: Tavaz
720p (HD) / WEBRip IMDb
Breeders S01E05

Breeders S01E05
WEBRip | MKV | 1280x720 | English | H264 @ 1219 kbps | E-AC-3 @ 256 kbps | 24 min 54 s | 263 MiB
Subtitles: English
Genre: Comedy


Breeders exposes the parental-paradox that it is possible, in the very same moment, to love your child to the horizon of the universe, while being apoplectically angry enough to want to send them there.

af629a4bb7044596aed178b98ca21306.mkv (263.3 MB)



General
Unique ID : 197504621532893959737828815093903711285 (0x949601A871C120183B1D9A1BA5E0DC35)
Complete name : ./af629a4bb7044596aed178b98ca21306.mkv
Format : Matroska
Format version : Version 4 / Version 2
File size : 263 MiB
Duration : 24 min 54 s
Overall bit rate : 1 478 kb/s
Encoded date : UTC 2020-03-24 07:00:55
Writing application : mkvmerge v44.0.0 ('Domino') 64-bit
Writing library : libebml v1.3.10 + libmatroska v1.5.2

Video
ID : 1
Format : AVC
Format/Info : Advanced Video Codec
Format profile : High@L3.1
Format settings : CABAC / 5 Ref Frames
Format settings, CABAC : Yes
Format settings, RefFrames : 5 frames
Codec ID : V_MPEG4/ISO/AVC
Duration : 24 min 54 s
Bit rate : 1 220 kb/s
Width : 1 280 pixels
Height : 720 pixels
Display aspect ratio : 16:9
Frame rate mode : Constant
Frame rate : 23.976 (24000/1001) FPS
Color space : YUV
Chroma subsampling : 4:2:0
Bit depth : 8 bits
Scan type : Progressive
Bits/(Pixel*Frame) : 0.055
Stream size : 217 MiB (83%)
Language : English
Default : Yes
Forced : No

Audio
ID : 2
Format : E-AC-3
Format/Info : Enhanced Audio Coding 3
Format settings, Endianness : Big
Codec ID : A_EAC3
Duration : 24 min 54 s
Bit rate mode : Constant
Bit rate : 256 kb/s
Channel(s) : 6 channels
Channel positions : Front: L C R, Side: L R, LFE
Sampling rate : 48.0 kHz
Frame rate : 187.500 FPS (256 SPF)
Compression mode : Lossy
Stream size : 45.6 MiB (17%)
Language : English
Service kind : Complete Main
Default : Yes
Forced : No

Text
ID : 3
Format : UTF-8
Codec ID : S_TEXT/UTF8
Codec ID/Info : UTF-8 Plain Text
Duration : 23 min 55 s
Bit rate : 95 b/s
Count of elements : 558
Stream size : 16.8 KiB (0%)
Title : English
Language : English
Default : No
Forced : No





Breeders S01E05


Breeders S01E05


Breeders S01E05


Breeders S01E05


Breeders S01E05

All episodes