Index
# A B C D E F G H I J K L M N O P Q R S T U V W Y Z
Tags
Language
Tags

Featured TV Shows


Breeders S01E06

Posted By: Tavaz
720p (HD) / WEBRip IMDb
Breeders S01E06

Breeders S01E06
WEBRip | MKV | 1280x720 | English | H264 @ 1620 kbps | E-AC-3 @ 256 kbps | 22 min 11 s | 298 MiB
Subtitles: English
Genre: Comedy


Breeders exposes the parental-paradox that it is possible, in the very same moment, to love your child to the horizon of the universe, while being apoplectically angry enough to want to send them there.

37892e56447445c38f95276da915a2e1.mkv (298.1 MB)



General
Unique ID : 46111867450056246877912668974655313791 (0x22B0D297F8258B68BA7662C8F72D977F)
Complete name : ./37892e56447445c38f95276da915a2e1.mkv
Format : Matroska
Format version : Version 4 / Version 2
File size : 298 MiB
Duration : 22 min 11 s
Overall bit rate : 1 878 kb/s
Encoded date : UTC 2020-03-31 07:00:23
Writing application : mkvmerge v44.0.0 ('Domino') 64-bit
Writing library : libebml v1.3.10 + libmatroska v1.5.2

Video
ID : 1
Format : AVC
Format/Info : Advanced Video Codec
Format profile : High@L3.1
Format settings : CABAC / 5 Ref Frames
Format settings, CABAC : Yes
Format settings, RefFrames : 5 frames
Codec ID : V_MPEG4/ISO/AVC
Duration : 22 min 11 s
Bit rate : 1 621 kb/s
Width : 1 280 pixels
Height : 720 pixels
Display aspect ratio : 16:9
Frame rate mode : Constant
Frame rate : 23.976 (24000/1001) FPS
Color space : YUV
Chroma subsampling : 4:2:0
Bit depth : 8 bits
Scan type : Progressive
Bits/(Pixel*Frame) : 0.073
Stream size : 257 MiB (86%)
Language : English
Default : Yes
Forced : No

Audio
ID : 2
Format : E-AC-3
Format/Info : Enhanced Audio Coding 3
Format settings, Endianness : Big
Codec ID : A_EAC3
Duration : 22 min 11 s
Bit rate mode : Constant
Bit rate : 256 kb/s
Channel(s) : 6 channels
Channel positions : Front: L C R, Side: L R, LFE
Sampling rate : 48.0 kHz
Frame rate : 187.500 FPS (256 SPF)
Compression mode : Lossy
Stream size : 40.6 MiB (14%)
Language : English
Service kind : Complete Main
Default : Yes
Forced : No

Text
ID : 3
Format : UTF-8
Codec ID : S_TEXT/UTF8
Codec ID/Info : UTF-8 Plain Text
Duration : 21 min 24 s
Bit rate : 110 b/s
Count of elements : 549
Stream size : 17.3 KiB (0%)
Title : English
Language : English
Default : No
Forced : No





Breeders S01E06


Breeders S01E06


Breeders S01E06


Breeders S01E06


Breeders S01E06

All episodes