Index
# A B C D E F G H I J K L M N O P Q R S T U V W Y Z
Tags
Language
Tags

Featured TV Shows


Breeders S01E09

Posted By: Tavaz
720p (HD) / WEB-DL IMDb
Breeders S01E09

Breeders S01E09
WEB-DL | MKV | 1280x720 | English | H264 @ 2854 kbps | E-AC-3 @ 640 kbps | 25 min 23 s | 635 MiB
Subtitles: English
Genre: Comedy


Breeders exposes the parental-paradox that it is possible, in the very same moment, to love your child to the horizon of the universe, while being apoplectically angry enough to want to send them there.

Breeders.S01E09.720p.AMZN.WEB-DL.DD+5.1.H.264-iKA.mkv (635.1 MB)



General
Unique ID : 164669486247505546691202027644960838929 (0x7BE2307FBC5C01332D55FBA231DF1511)
Complete name : ./Breeders.S01E09.720p.AMZN.WEB-DL.DD+5.1.H.264-iKA.mkv
Format : Matroska
Format version : Version 4 / Version 2
File size : 635 MiB
Duration : 25 min 23 s
Overall bit rate : 3 497 kb/s
Encoded date : UTC 2020-04-22 11:34:56
Writing application : mkvmerge v45.0.0 ('Heaven in Pennies') 64-bit
Writing library : libebml v1.3.10 + libmatroska v1.5.2

Video
ID : 1
Format : AVC
Format/Info : Advanced Video Codec
Format profile : High@L3.1
Format settings : CABAC / 4 Ref Frames
Format settings, CABAC : Yes
Format settings, RefFrames : 4 frames
Codec ID : V_MPEG4/ISO/AVC
Duration : 25 min 23 s
Bit rate mode : Constant
Bit rate : 2 855 kb/s
Nominal bit rate : 6 000 kb/s
Width : 1 280 pixels
Height : 720 pixels
Display aspect ratio : 16:9
Frame rate mode : Constant
Frame rate : 23.976 (24000/1001) FPS
Color space : YUV
Chroma subsampling : 4:2:0
Bit depth : 8 bits
Scan type : Progressive
Bits/(Pixel*Frame) : 0.129
Stream size : 518 MiB (82%)
Default : Yes
Forced : No
Color range : Limited
Color primaries : BT.709
Transfer characteristics : BT.709
Matrix coefficients : BT.709

Audio
ID : 2
Format : E-AC-3
Format/Info : Enhanced Audio Coding 3
Format settings, Endianness : Big
Codec ID : A_EAC3
Duration : 25 min 23 s
Bit rate mode : Constant
Bit rate : 640 kb/s
Channel(s) : 6 channels
Channel positions : Front: L C R, Side: L R, LFE
Sampling rate : 48.0 kHz
Frame rate : 187.500 FPS (256 SPF)
Compression mode : Lossy
Stream size : 116 MiB (18%)
Language : English
Service kind : Complete Main
Default : Yes
Forced : No

Text
ID : 3
Format : UTF-8
Codec ID : S_TEXT/UTF8
Codec ID/Info : UTF-8 Plain Text
Duration : 25 min 15 s
Bit rate : 94 b/s
Count of elements : 625
Stream size : 17.5 KiB (0%)
Title : SDH
Language : English
Default : No
Forced : No





Breeders S01E09


Breeders S01E09


Breeders S01E09


Breeders S01E09


Breeders S01E09

All episodes