Index
# A B C D E F G H I J K L M N O P Q R S T U V W Y Z
Tags
Language
Tags

Featured TV Shows


Breeders S01E09

Posted By: Tavaz
720p (HD) / WEBRip IMDb
Breeders S01E09

Breeders S01E09
WEBRip | MKV | 1280x720 | Français / English | H264 @ 3400 kbps | AAC @ 128 kbps | 22 min 28 s | 568 MiB
Subtitles: Français
Genre: Comedy, Family


Breeders exposes the parental-paradox that it is possible, in the very same moment, to love your child to the horizon of the universe, while being apoplectically angry enough to want to send them there.

9b84d1774ef64d95895fbe63c5e7cc89.mkv (568.1 MB)



General
Unique ID : 322099882961155334536726688143403951397 (0xF2522E53E8BAFDBF405C67E4FB34A525)
Complete name : ./9b84d1774ef64d95895fbe63c5e7cc89.mkv
Format : Matroska
Format version : Version 4 / Version 2
File size : 568 MiB
Duration : 22 min 28 s
Overall bit rate : 3 533 kb/s
Encoded date : UTC 2020-06-28 22:22:32
Writing application : mkvmerge v48.0.0 ('Fortress Around Your Heart') 64-bit
Writing library : libebml v1.4.0 + libmatroska v1.6.0

Video
ID : 1
Format : AVC
Format/Info : Advanced Video Codec
Format profile : High@L3.1
Format settings : CABAC / 2 Ref Frames
Format settings, CABAC : Yes
Format settings, RefFrames : 2 frames
Format settings, GOP : M=1, N=50
Codec ID : V_MPEG4/ISO/AVC
Duration : 22 min 28 s
Bit rate mode : Constant
Bit rate : 3 400 kb/s
Width : 1 280 pixels
Height : 720 pixels
Display aspect ratio : 16:9
Frame rate mode : Constant
Frame rate : 25.000 FPS
Color space : YUV
Chroma subsampling : 4:2:0
Bit depth : 8 bits
Scan type : Progressive
Bits/(Pixel*Frame) : 0.148
Stream size : 526 MiB (93%)
Default : Yes
Forced : No
Color range : Limited
Color primaries : BT.709
Transfer characteristics : BT.709
Matrix coefficients : BT.709

Audio #1
ID : 2
Format : AAC
Format/Info : Advanced Audio Codec
Format profile : LC
Codec ID : A_AAC-2
Duration : 22 min 28 s
Bit rate : 128 kb/s
Channel(s) : 2 channels
Channel positions : Front: L R
Sampling rate : 48.0 kHz
Frame rate : 46.875 FPS (1024 SPF)
Compression mode : Lossy
Stream size : 20.6 MiB (4%)
Title : French
Language : French
Default : Yes
Forced : No

Audio #2
ID : 3
Format : AAC
Format/Info : Advanced Audio Codec
Format profile : LC
Codec ID : A_AAC-2
Duration : 22 min 28 s
Bit rate : 128 kb/s
Channel(s) : 2 channels
Channel positions : Front: L R
Sampling rate : 48.0 kHz
Frame rate : 46.875 FPS (1024 SPF)
Compression mode : Lossy
Stream size : 20.6 MiB (4%)
Title : English
Language : English
Default : No
Forced : No

Text
ID : 4
Format : UTF-8
Codec ID : S_TEXT/UTF8
Codec ID/Info : UTF-8 Plain Text
Duration : 22 min 8 s
Bit rate : 75 b/s
Count of elements : 416
Stream size : 12.2 KiB (0%)
Title : French
Language : French
Default : No
Forced : No





Breeders S01E09


Breeders S01E09


Breeders S01E09


Breeders S01E09


Breeders S01E09

All episodes