Index
# A B C D E F G H I J K L M N O P Q R S T U V W Y Z
Tags
Language
Tags

Featured TV Shows


Breeders S01E10

Posted By: Tavaz
1080p (FullHD) / WEB-DL IMDb
Breeders S01E10

Breeders S01E10
WEB-DL | MKV | 1920x1080 | English | H264 @ 7806 kbps | E-AC-3 @ 640 kbps | 24 min 51 s | 1.47 GiB
Subtitles: English
Genre: Comedy


Breeders exposes the parental-paradox that it is possible, in the very same moment, to love your child to the horizon of the universe, while being apoplectically angry enough to want to send them there.

Breeders.S01E10.1080p.AMZN.WEB-DL.DD+5.1.H.264-iKA.mkv (1.5 GB)



General
Unique ID : 201470414284126001576780951103804538112 (0x9791CA5632E79A465FC82A28C6D7FD00)
Complete name : ./Breeders.S01E10.1080p.AMZN.WEB-DL.DD+5.1.H.264-iKA.mkv
Format : Matroska
Format version : Version 4 / Version 2
File size : 1.47 GiB
Duration : 24 min 51 s
Overall bit rate : 8 448 kb/s
Encoded date : UTC 2020-04-28 11:01:10
Writing application : mkvmerge v45.0.0 ('Heaven in Pennies') 64-bit
Writing library : libebml v1.3.10 + libmatroska v1.5.2

Video
ID : 1
Format : AVC
Format/Info : Advanced Video Codec
Format profile : High@L4
Format settings : CABAC / 4 Ref Frames
Format settings, CABAC : Yes
Format settings, RefFrames : 4 frames
Codec ID : V_MPEG4/ISO/AVC
Duration : 24 min 51 s
Bit rate mode : Constant
Bit rate : 7 806 kb/s
Nominal bit rate : 10 000 kb/s
Width : 1 920 pixels
Height : 1 080 pixels
Display aspect ratio : 16:9
Frame rate mode : Constant
Frame rate : 23.976 (24000/1001) FPS
Color space : YUV
Chroma subsampling : 4:2:0
Bit depth : 8 bits
Scan type : Progressive
Bits/(Pixel*Frame) : 0.157
Stream size : 1.36 GiB (92%)
Default : Yes
Forced : No
Color range : Limited
Color primaries : BT.709
Transfer characteristics : BT.709
Matrix coefficients : BT.709

Audio
ID : 2
Format : E-AC-3
Format/Info : Enhanced Audio Coding 3
Format settings, Endianness : Big
Codec ID : A_EAC3
Duration : 24 min 51 s
Bit rate mode : Constant
Bit rate : 640 kb/s
Channel(s) : 6 channels
Channel positions : Front: L C R, Side: L R, LFE
Sampling rate : 48.0 kHz
Frame rate : 187.500 FPS (256 SPF)
Compression mode : Lossy
Stream size : 114 MiB (8%)
Language : English
Service kind : Complete Main
Default : Yes
Forced : No

Text
ID : 3
Format : UTF-8
Codec ID : S_TEXT/UTF8
Codec ID/Info : UTF-8 Plain Text
Duration : 24 min 40 s
Bit rate : 91 b/s
Count of elements : 601
Stream size : 16.5 KiB (0%)
Title : SDH
Language : English
Default : No
Forced : No





Breeders S01E10


Breeders S01E10


Breeders S01E10


Breeders S01E10


Breeders S01E10

All episodes