Index
# A B C D E F G H I J K L M N O P Q R S T U V W Y Z
Tags
Language
Tags

Featured TV Shows


Breeders S01E10

Posted By: Tavaz
Breeders S01E10

Breeders S01E10
MKV | 1920x1080 | H265 @ 695 kbps | E-AC-3 @ 256 kbps | 22 min 34 s | 157 MiB
Subtitles: English
Genre: Comedy


Breeders exposes the parental-paradox that it is possible, in the very same moment, to love your child to the horizon of the universe, while being apoplectically angry enough to want to send them there.

8aa0fe9cd45b4c9380f342bf8c75b2d7.mkv (156.9 MB)



General
Unique ID : 31729277807374674483483877234117209655 (0x17DED62D02995EBDCE58DFBA9F606E37)
Complete name : ./8aa0fe9cd45b4c9380f342bf8c75b2d7.mkv
Format : Matroska
Format version : Version 4 / Version 2
File size : 157 MiB
Duration : 22 min 34 s
Overall bit rate : 971 kb/s
Writing application : Lavf58.42.100
Writing library : Lavf58.42.100
ErrorDetectionType : Per level 1

Video
ID : 1
Format : HEVC
Format/Info : High Efficiency Video Coding
Format profile : Main 10@L4@Main
Codec ID : V_MPEGH/ISO/HEVC
Duration : 22 min 34 s
Bit rate : 696 kb/s
Width : 1 920 pixels
Height : 1 080 pixels
Display aspect ratio : 16:9
Frame rate mode : Constant
Frame rate : 23.976 (24000/1001) FPS
Color space : YUV
Chroma subsampling : 4:2:0
Bit depth : 10 bits
Bits/(Pixel*Frame) : 0.014
Stream size : 112 MiB (72%)
Writing library : x265 3.3+12-00b686782ad0:[Windows][GCC 9.3.1][64 bit] 10bit
Encoding settings : cpuid=1111039 / frame-threads=4 / numa-pools=16 / wpp / no-pmode / no-pme / no-psnr / no-ssim / log-level=2 / input-csp=1 / input-res=1920x1080 / interlace=0 / total-frames=0 / level-idc=0 / high-tier=1 / uhd-bd=0 / ref=1 / no-allow-non-conformance / no-repeat-headers / annexb / no-aud / no-hrd / info / hash=0 / no-temporal-layers / open-gop / min-keyint=23 / keyint=250 / gop-lookahead=0 / bframes=3 / b-adapt=0 / b-pyramid / bframe-bias=0 / rc-lookahead=5 / lookahead-slices=6 / scenecut=0 / hist-scenecut=0 / radl=0 / no-splice / no-intra-refresh / ctu=32 / min-cu-size=16 / no-rect / no-amp / max-tu-size=32 / tu-inter-depth=1 / tu-intra-depth=1 / limit-tu=0 / rdoq-level=0 / dynamic-rd=0.00 / no-ssim-rd / no-signhide / no-tskip / nr-intra=0 / nr-inter=0 / no-constrained-intra / strong-intra-smoothing / max-merge=2 / limit-refs=0 / no-limit-modes / me=0 / subme=0 / merange=57 / temporal-mvp / no-frame-dup / no-hme / no-weightp / no-weightb / no-analyze-src-pics / deblock=0:0 / no-sao / no-sao-non-deblock / rd=2 / selective-sao=0 / early-skip / rskip / fast-intra / no-tskip-fast / no-cu-lossless / no-b-intra / no-splitrd-skip / rdpenalty=0 / psy-rd=2.00 / psy-rdoq=0.00 / no-rd-refine / no-lossless / cbqpoffs=0 / crqpoffs=0 / rc=crf / crf=23.0 / qcomp=0.60 / qpstep=4 / stats-write=0 / stats-read=0 / ipratio=1.40 / pbratio=1.30 / aq-mode=1 / aq-strength=0.00 / cutree / zone-count=0 / no-strict-cbr / qg-size=32 / no-rc-grain / qpmax=69 / qpmin=0 / no-const-vbv / sar=1 / overscan=0 / videoformat=5 / range=0 / colorprim=2 / transfer=2 / colormatrix=2 / chromaloc=0 / display-window=0 / cll=0,0 / min-luma=0 / max-luma=1023 / log2-max-poc-lsb=8 / vui-timing-info / vui-hrd-info / slices=1 / no-opt-qp-pps / no-opt-ref-list-length-pps / no-multi-pass-opt-rps / scenecut-bias=0.05 / hist-threshold=0.01 / no-opt-cu-delta-qp / no-aq-motion / no-hdr10 / no-hdr10-opt / no-dhdr10-opt / no-idr-recovery-sei / analysis-reuse-level=0 / analysis-save-reuse-level=0 / analysis-load-reuse-level=0 / scale-factor=0 / refine-intra=0 / refine-inter=0 / refine-mv=1 / refine-ctu-distortion=0 / no-limit-sao / ctu-info=0 / no-lowpass-dct / refine-analysis-type=0 / copy-pic=1 / max-ausize-factor=1.0 / no-dynamic-refine / no-single-sei / no-hevc-aq / no-svt / no-field / qp-adaptation-range=1.00 / no-scenecut-aware-qpconformance-window-offsets / right=0 / bottom=0 / decoder-max-rate=0
Default : Yes
Forced : No
Color range : Limited
Statistics Tags Issue : mkvmerge v43.0.0 ('The Quartermaster') 64-bit 2020-04-28 07:00:29 / Lavf58.42.100
FromStats_BitRate : 2971225
FromStats_Duration : 00:22:34.854000000
FromStats_FrameCount : 32484
FromStats_StreamSize : 503197086

Audio
ID : 2
Format : E-AC-3
Format/Info : Enhanced Audio Coding 3
Format settings, Endianness : Big
Codec ID : A_EAC3
Duration : 22 min 34 s
Bit rate mode : Constant
Bit rate : 256 kb/s
Channel(s) : 6 channels
Channel positions : Front: L C R, Side: L R, LFE
Sampling rate : 48.0 kHz
Frame rate : 187.500 FPS (256 SPF)
Bit depth : 32 bits
Compression mode : Lossy
Delay relative to video : 6 ms
Stream size : 41.3 MiB (26%)
Service kind : Complete Main
Default : Yes
Forced : No
Statistics Tags Issue : mkvmerge v43.0.0 ('The Quartermaster') 64-bit 2020-04-28 07:00:29 / Lavf58.42.100
FromStats_BitRate : 256000
FromStats_Duration : 00:22:34.950000000
FromStats_FrameCount : 42342
FromStats_StreamSize : 43358208

Text
ID : 3
Format : ASS
Codec ID : S_TEXT/ASS
Codec ID/Info : Advanced Sub Station Alpha
Compression mode : Lossless
Writing library : Lavc58.78.102 ssa
Language : English
Default : No
Forced : No
Statistics Tags Issue : mkvmerge v43.0.0 ('The Quartermaster') 64-bit 2020-04-28 07:00:29 / Lavf58.42.100
FromStats_BitRate : 99
FromStats_Duration : 00:22:00.238000000
FromStats_FrameCount : 561
FromStats_StreamSize : 16402





Breeders S01E10


Breeders S01E10


Breeders S01E10


Breeders S01E10


Breeders S01E10

All episodes