Index
# A B C D E F G H I J K L M N O P Q R S T U V W Y Z
Tags
Language
Tags

Featured TV Shows


Breeders S01E10

Posted By: Tavaz
720p (HD) / WEBRip IMDb
Breeders S01E10

Breeders S01E10
WEBRip | MKV | 1280x720 | H264 @ 1476 kbps | E-AC-3 @ 256 kbps | 22 min 34 s | 280 MiB
Subtitles: English
Genre: Comedy


Breeders exposes the parental-paradox that it is possible, in the very same moment, to love your child to the horizon of the universe, while being apoplectically angry enough to want to send them there.

8e9a5945854c44619142433722fb5cf3.mkv (280.1 MB)



General
Unique ID : 115098754078054032206633859177634217659 (0x569736B54F2706C7455CFF7FFCFA3EBB)
Complete name : ./8e9a5945854c44619142433722fb5cf3.mkv
Format : Matroska
Format version : Version 4 / Version 2
File size : 280 MiB
Duration : 22 min 34 s
Overall bit rate : 1 734 kb/s
Encoded date : UTC 2020-04-28 07:00:27
Writing application : mkvmerge v43.0.0 ('The Quartermaster') 64-bit
Writing library : libebml v1.3.10 + libmatroska v1.5.2

Video
ID : 1
Format : AVC
Format/Info : Advanced Video Codec
Format profile : High@L3.1
Format settings : CABAC / 5 Ref Frames
Format settings, CABAC : Yes
Format settings, RefFrames : 5 frames
Codec ID : V_MPEG4/ISO/AVC
Duration : 22 min 34 s
Bit rate : 1 477 kb/s
Width : 1 280 pixels
Height : 720 pixels
Display aspect ratio : 16:9
Frame rate mode : Constant
Frame rate : 23.976 (24000/1001) FPS
Color space : YUV
Chroma subsampling : 4:2:0
Bit depth : 8 bits
Scan type : Progressive
Bits/(Pixel*Frame) : 0.067
Stream size : 238 MiB (85%)
Default : Yes
Forced : No

Audio
ID : 2
Format : E-AC-3
Format/Info : Enhanced Audio Coding 3
Format settings, Endianness : Big
Codec ID : A_EAC3
Duration : 22 min 34 s
Bit rate mode : Constant
Bit rate : 256 kb/s
Channel(s) : 6 channels
Channel positions : Front: L C R, Side: L R, LFE
Sampling rate : 48.0 kHz
Frame rate : 187.500 FPS (256 SPF)
Compression mode : Lossy
Delay relative to video : 6 ms
Stream size : 41.3 MiB (15%)
Service kind : Complete Main
Default : Yes
Forced : No

Text
ID : 3
Format : UTF-8
Codec ID : S_TEXT/UTF8
Codec ID/Info : UTF-8 Plain Text
Duration : 21 min 58 s
Bit rate : 99 b/s
Count of elements : 561
Stream size : 16.0 KiB (0%)
Language : English
Default : No
Forced : No





Breeders S01E10


Breeders S01E10


Breeders S01E10


Breeders S01E10


Breeders S01E10

All episodes