Index
# A B C D E F G H I J K L M N O P Q R S T U V W Y Z
Tags
Language
Tags

Featured TV Shows


Breeders S02E03

Posted By: Tavaz
720p (HD) / WEB-DL IMDb
Breeders S02E03

Breeders S02E03
WEB-DL | MKV | 1280x640 | English | H264 @ 3287 kbps | E-AC-3 @ 640 kbps | 22 min 33 s | 634 MiB
Subtitles: English
Genre: Comedy, Family


Exposing the parental-paradox that it is possible, in the very same moment, to love your child to the horizon of the universe, while being apoplectically angry enough to want to send them there.

8c41120ca2184474a58d485e3270c56a.mkv (633.8 MB)



General
Unique ID : 4986611291612279660387421128994182582 (0x3C062EB28E7B0A41EE273735E5DD5B6)
Complete name : ./8c41120ca2184474a58d485e3270c56a.mkv
Format : Matroska
Format version : Version 4 / Version 2
File size : 634 MiB
Duration : 22 min 33 s
Overall bit rate : 3 929 kb/s
Encoded date : UTC 2021-07-18 22:05:44
Writing application : mkvmerge v59.0.0 ('Shining Star') 64-bit
Writing library : libebml v1.4.2 + libmatroska v1.6.4

Video
ID : 1
Format : AVC
Format/Info : Advanced Video Codec
Format profile : High@L3.1
Format settings : CABAC / 4 Ref Frames
Format settings, CABAC : Yes
Format settings, RefFrames : 4 frames
Codec ID : V_MPEG4/ISO/AVC
Duration : 22 min 33 s
Bit rate mode : Constant
Bit rate : 3 287 kb/s
Nominal bit rate : 6 000 kb/s
Width : 1 280 pixels
Height : 640 pixels
Display aspect ratio : 2.000
Frame rate mode : Constant
Frame rate : 23.976 (24000/1001) FPS
Color space : YUV
Chroma subsampling : 4:2:0
Bit depth : 8 bits
Scan type : Progressive
Bits/(Pixel*Frame) : 0.167
Stream size : 530 MiB (84%)
Language : English
Default : Yes
Forced : No
Color range : Limited
Color primaries : BT.709
Transfer characteristics : BT.709
Matrix coefficients : BT.709

Audio
ID : 2
Format : E-AC-3
Format/Info : Enhanced Audio Coding 3
Format settings, Endianness : Big
Codec ID : A_EAC3
Duration : 22 min 33 s
Bit rate mode : Constant
Bit rate : 640 kb/s
Channel(s) : 6 channels
Channel positions : Front: L C R, Side: L R, LFE
Sampling rate : 48.0 kHz
Frame rate : 187.500 FPS (256 SPF)
Compression mode : Lossy
Stream size : 103 MiB (16%)
Title : English
Language : English
Service kind : Complete Main
Default : Yes
Forced : No

Text
ID : 3
Format : UTF-8
Codec ID : S_TEXT/UTF8
Codec ID/Info : UTF-8 Plain Text
Duration : 22 min 25 s
Bit rate : 103 b/s
Count of elements : 548
Stream size : 17.0 KiB (0%)
Title : English (SDH)
Language : English
Default : No
Forced : No





Breeders S02E03


Breeders S02E03


Breeders S02E03


Breeders S02E03


Breeders S02E03

All episodes