Index
# A B C D E F G H I J K L M N O P Q R S T U V W Y Z
Tags
Language
Tags

Featured TV Shows


Breeders S02E09

Posted By: Tavaz
1080p (FullHD) / WEBRip IMDb
Breeders S02E09

Breeders S02E09
WEBRip | MKV | 1920x960 | English | H264 @ 7583 kbps | E-AC-3 @ 640 kbps | 23 min 7 s | 1.33 GiB
Subtitles: English
Genre: Comedy, Family


Exposing the parental-paradox that it is possible, in the very same moment, to love your child to the horizon of the universe, while being apoplectically angry enough to want to send them there.

2c865169f97040ccb702b91145ea7a40.mkv (1.3 GB)



General
Unique ID : 66675122870503148140520989340800245540 (0x3229295C88972DD2EBAB32B41459DF24)
Complete name : ./2c865169f97040ccb702b91145ea7a40.mkv
Format : Matroska
Format version : Version 4 / Version 2
File size : 1.33 GiB
Duration : 23 min 7 s
Overall bit rate : 8 225 kb/s
Encoded date : UTC 2021-05-11 05:02:28
Writing application : mkvmerge v52.0.0 ('Secret For The Mad') 64-bit
Writing library : libebml v1.4.2 + libmatroska v1.6.2

Video
ID : 1
Format : AVC
Format/Info : Advanced Video Codec
Format profile : High@L4
Format settings : CABAC / 4 Ref Frames
Format settings, CABAC : Yes
Format settings, RefFrames : 4 frames
Codec ID : V_MPEG4/ISO/AVC
Duration : 23 min 7 s
Bit rate mode : Constant
Bit rate : 7 583 kb/s
Nominal bit rate : 10 000 kb/s
Width : 1 920 pixels
Height : 960 pixels
Display aspect ratio : 2.000
Frame rate mode : Constant
Frame rate : 23.976 (24000/1001) FPS
Color space : YUV
Chroma subsampling : 4:2:0
Bit depth : 8 bits
Scan type : Progressive
Bits/(Pixel*Frame) : 0.172
Stream size : 1.22 GiB (92%)
Language : English
Default : Yes
Forced : No
Color range : Limited
Color primaries : BT.709
Transfer characteristics : BT.709
Matrix coefficients : BT.709

Audio
ID : 2
Format : E-AC-3
Format/Info : Enhanced Audio Coding 3
Format settings, Endianness : Big
Codec ID : A_EAC3
Duration : 23 min 7 s
Bit rate mode : Constant
Bit rate : 640 kb/s
Channel(s) : 6 channels
Channel positions : Front: L C R, Side: L R, LFE
Sampling rate : 48.0 kHz
Frame rate : 187.500 FPS (256 SPF)
Compression mode : Lossy
Stream size : 106 MiB (8%)
Language : English
Service kind : Complete Main
Default : Yes
Forced : No

Text
ID : 3
Format : UTF-8
Codec ID : S_TEXT/UTF8
Codec ID/Info : UTF-8 Plain Text
Duration : 21 min 57 s
Bit rate : 107 b/s
Count of elements : 581
Stream size : 17.3 KiB (0%)
Title : English
Language : English
Default : No
Forced : No





Breeders S02E09


Breeders S02E09


Breeders S02E09


Breeders S02E09


Breeders S02E09

All episodes