Featured TV Shows


Breeders S02E09

Posted By: Tavaz
1080p (FullHD) / WEBRip IMDb
Breeders S02E09

Breeders S02E09
WEBRip | MKV | 1920x1080 | Français / English | H264 @ 4499 kbps | AAC @ 128 kbps | 22 min 9 s | 733 MiB
Subtitles: Français
Genre: Comedy, Family


Exposing the parental-paradox that it is possible, in the very same moment, to love your child to the horizon of the universe, while being apoplectically angry enough to want to send them there.

1ddef7e96816416eb83eb20f94037dc0.mkv (733.2 MB)



General
Unique ID : 272143876189597551339347462646488630322 (0xCCBD0108572AA0294D24F08131780432)
Complete name : ./1ddef7e96816416eb83eb20f94037dc0.mkv
Format : Matroska
Format version : Version 4 / Version 2
File size : 733 MiB
Duration : 22 min 9 s
Overall bit rate : 4 625 kb/s
Encoded date : UTC 2021-06-17 17:06:07
Writing application : mkvmerge v58.0.0 ('Supper's Ready') 64-bit
Writing library : libebml v1.4.2 + libmatroska v1.6.4

Video
ID : 1
Format : AVC
Format/Info : Advanced Video Codec
Format profile : High@L4.1
Format settings : CABAC / 2 Ref Frames
Format settings, CABAC : Yes
Format settings, RefFrames : 2 frames
Format settings, GOP : M=1, N=50
Codec ID : V_MPEG4/ISO/AVC
Duration : 22 min 9 s
Bit rate mode : Constant
Bit rate : 4 500 kb/s
Width : 1 920 pixels
Height : 1 080 pixels
Display aspect ratio : 16:9
Frame rate mode : Constant
Frame rate : 25.000 FPS
Color space : YUV
Chroma subsampling : 4:2:0
Bit depth : 8 bits
Scan type : Progressive
Bits/(Pixel*Frame) : 0.087
Stream size : 692 MiB (94%)
Default : Yes
Forced : No
Color range : Limited
Color primaries : BT.709
Transfer characteristics : BT.709
Matrix coefficients : BT.709

Audio #1
ID : 2
Format : AAC
Format/Info : Advanced Audio Codec
Format profile : LC
Codec ID : A_AAC-2
Duration : 22 min 9 s
Bit rate : 128 kb/s
Channel(s) : 2 channels
Channel positions : Front: L R
Sampling rate : 48.0 kHz
Frame rate : 46.875 FPS (1024 SPF)
Compression mode : Lossy
Stream size : 20.3 MiB (3%)
Title : French
Language : French
Default : Yes
Forced : No

Audio #2
ID : 3
Format : AAC
Format/Info : Advanced Audio Codec
Format profile : LC
Codec ID : A_AAC-2
Duration : 22 min 9 s
Bit rate : 128 kb/s
Channel(s) : 2 channels
Channel positions : Front: L R
Sampling rate : 48.0 kHz
Frame rate : 46.875 FPS (1024 SPF)
Compression mode : Lossy
Stream size : 20.3 MiB (3%)
Title : English
Language : English
Default : No
Forced : No

Text
ID : 4
Format : UTF-8
Codec ID : S_TEXT/UTF8
Codec ID/Info : UTF-8 Plain Text
Duration : 21 min 34 s
Bit rate : 77 b/s
Count of elements : 418
Stream size : 12.3 KiB (0%)
Title : French
Language : French
Default : No
Forced : No





Breeders S02E09


Breeders S02E09


Breeders S02E09


Breeders S02E09


Breeders S02E09

All episodes