Index
# A B C D E F G H I J K L M N O P Q R S T U V W Y Z
Tags
Language
Tags

Featured TV Shows


Breeders S03E04

Posted By: Tavaz
1080p (FullHD) / WEBRip IMDb
Breeders S03E04

Breeders S03E04
WEBRip | MKV | 1920x1080 | English | H264 @ 9214 kbps | E-AC-3 @ 640 kbps | 25 min 20 s | 1.74 GiB
Genre: Comedy, Family


Exposing the parental-paradox that it is possible, in the very same moment, to love your child to the horizon of the universe, while being apoplectically angry enough to want to send them there.

5b4f523d53f54124afe89cc3ebc6355e.mkv (1.7 GB)



General
Unique ID : 61306911554225357091865807006200292335 (0x2E1F481BEB666BBA915A3BB4CF48E3EF)
Complete name : ./5b4f523d53f54124afe89cc3ebc6355e.mkv
Format : Matroska
Format version : Version 4 / Version 2
File size : 1.74 GiB
Duration : 25 min 20 s
Overall bit rate mode : Constant
Overall bit rate : 9 845 kb/s
Writing application : mkvmerge v67.0.0 ('Under Stars') 64-bit
Writing library : libebml v1.4.2 + libmatroska v1.6.4 / Lavf58.76.100

Video
ID : 1
Format : AVC
Format/Info : Advanced Video Codec
Format profile : High@L4
Format settings : CABAC / 4 Ref Frames
Format settings, CABAC : Yes
Format settings, RefFrames : 4 frames
Codec ID : V_MPEG4/ISO/AVC
Duration : 25 min 18 s
Bit rate mode : Constant
Bit rate : 9 215 kb/s
Nominal bit rate : 10 000 kb/s
Width : 1 920 pixels
Height : 1 080 pixels
Display aspect ratio : 16:9
Frame rate mode : Constant
Frame rate : 23.976 (23976/1000) FPS
Original frame rate : 23.976 (24000/1001) FPS
Color space : YUV
Chroma subsampling : 4:2:0
Bit depth : 8 bits
Scan type : Progressive
Bits/(Pixel*Frame) : 0.185
Stream size : 1.63 GiB (93%)
Writing library : AVC Coding
Default : Yes
Forced : No
Color range : Limited
Color primaries : BT.709
Transfer characteristics : BT.709
Matrix coefficients : BT.709
VENDOR_ID : [0][0][0][0]

Audio
ID : 2
Format : E-AC-3
Format/Info : Enhanced Audio Coding 3
Format settings, Endianness : Big
Codec ID : A_EAC3
Duration : 25 min 20 s
Bit rate mode : Constant
Bit rate : 640 kb/s
Channel(s) : 6 channels
Channel positions : Front: L C R, Side: L R, LFE
Sampling rate : 48.0 kHz
Frame rate : 187.500 FPS (256 SPF)
Bit depth : 32 bits
Compression mode : Lossy
Delay relative to video : -2 s 8 ms
Stream size : 116 MiB (7%)
Language : English
Service kind : Complete Main
Default : Yes
Forced : No
VENDOR_ID : [0][0][0][0]





Breeders S03E04


Breeders S03E04


Breeders S03E04


Breeders S03E04


Breeders S03E04

All episodes