Please register here if you want to download anything!

If domain in your address bar is different from the list below
PLEASE LEAVE THAT SITE IMMEDIATELY
❗IT'S A DANGEROUS FAKE❗



Spicy Magazines for Men! ;-)

Featured TV Shows


Brooklyn Nine-Nine S06E17

Posted By: Tavaz
720p (HD) / WEBRip IMDb
Brooklyn Nine-Nine S06E17

Brooklyn Nine-Nine S06E17
WEBRip | MKV | 1280x720 | French / English | H264 @ 3400 kbps | AAC @ 128 kbps | 20 min 37 s | 532 MiB
Subtitles: French
Genre: Comedy, Crime


A single-camera ensemble comedy following the lives of an eclectic group of detectives in a New York precinct, including one slacker who is forced to shape up when he gets a new boss.

26c12be82b5c4a3886e6e17d1f58dda2.mkv (531.9 MB)



General
Unique ID : 319300400810170242572033971657470179595 (0xF03705338757E01500C6A8B050A0F90B)
Complete name : ./26c12be82b5c4a3886e6e17d1f58dda2.mkv
Format : Matroska
Format version : Version 4 / Version 2
File size : 532 MiB
Duration : 20 min 37 s
Overall bit rate : 3 605 kb/s
Encoded date : UTC 2019-08-13 16:00:06
Writing application : mkvmerge v36.0.0 ('Is That Jazz?') 64-bit
Writing library : libebml v1.3.9 + libmatroska v1.5.2

Video
ID : 1
Format : AVC
Format/Info : Advanced Video Codec
Format profile : High@L3.1
Format settings : CABAC / 2 Ref Frames
Format settings, CABAC : Yes
Format settings, RefFrames : 2 frames
Format settings, GOP : M=1, N=50
Codec ID : V_MPEG4/ISO/AVC
Duration : 20 min 37 s
Bit rate mode : Constant
Bit rate : 3 400 kb/s
Width : 1 280 pixels
Height : 720 pixels
Display aspect ratio : 16:9
Frame rate mode : Constant
Frame rate : 25.000 FPS
Color space : YUV
Chroma subsampling : 4:2:0
Bit depth : 8 bits
Scan type : Progressive
Bits/(Pixel*Frame) : 0.148
Stream size : 494 MiB (93%)
Default : Yes
Forced : No
Color range : Limited
Color primaries : BT.709
Transfer characteristics : BT.709
Matrix coefficients : BT.709

Audio #1
ID : 2
Format : AAC
Format/Info : Advanced Audio Codec
Format profile : LC
Codec ID : A_AAC-2
Duration : 20 min 37 s
Bit rate : 128 kb/s
Channel(s) : 2 channels
Channel positions : Front: L R
Sampling rate : 48.0 kHz
Frame rate : 46.875 FPS (1024 SPF)
Compression mode : Lossy
Stream size : 18.9 MiB (4%)
Title : French
Language : French
Default : Yes
Forced : No

Audio #2
ID : 3
Format : AAC
Format/Info : Advanced Audio Codec
Format profile : LC
Codec ID : A_AAC-2
Duration : 20 min 37 s
Bit rate : 128 kb/s
Channel(s) : 2 channels
Channel positions : Front: L R
Sampling rate : 48.0 kHz
Frame rate : 46.875 FPS (1024 SPF)
Compression mode : Lossy
Stream size : 18.9 MiB (4%)
Title : English
Language : English
Default : No
Forced : No

Text
ID : 4
Format : UTF-8
Codec ID : S_TEXT/UTF8
Codec ID/Info : UTF-8 Plain Text
Duration : 20 min 31 s
Bit rate : 103 b/s
Count of elements : 518
Stream size : 15.6 KiB (0%)
Title : French
Language : French
Default : No
Forced : No





Brooklyn Nine-Nine S06E17


Brooklyn Nine-Nine S06E17


Brooklyn Nine-Nine S06E17


Brooklyn Nine-Nine S06E17


Brooklyn Nine-Nine S06E17

All episodes