Featured TV Shows


Buddy Thunderstruck S01E12

Posted By: Tavaz
720p (HD) / WEBRip IMDb
Buddy Thunderstruck S01E12

Buddy Thunderstruck S01E12
WEBRip | MKV | 1280x720 | English | H264 @ 3002 kbps | AC-3 @ 384 kbps | 13 min 37 s | 330 MiB
Subtitles: German, Dutch, French, Spanish, English
Genre: Animation, Comedy

Follow the outrageous, high-octane adventures of Buddy Thunderstruck, a truck-racing dog who brings guts and good times to the town of Greasepit.

sample-buddy.thunderstruck.s01e12.720p.web.x264-memento.mkv (27.1 MB)
buddy.thunderstruck.s01e12.720p.web.x264-memento.mkv (330.3 MB)



General
Unique ID : 101939803859277049392159311405042738177 (0x4CB0E45F352C48C7D01F011B54FDA401)
Complete name : ./buddy.thunderstruck.s01e12.720p.web.x264-memento.mkv
Format : Matroska
Format version : Version 4 / Version 2
File size : 330 MiB
Duration : 13 min 37 s
Overall bit rate mode : Variable
Overall bit rate : 3 388 kb/s
Encoded date : UTC 2018-02-21 10:40:34
Writing application : mkvmerge v7.3.0 ('Nouages') 64bit built on Oct 23 2014 13:14:01
Writing library : libebml v1.3.0 + libmatroska v1.4.1

Video
ID : 1
Format : AVC
Format/Info : Advanced Video Codec
Format profile : Main@L3.1
Format settings : CABAC / 3 Ref Frames
Format settings, CABAC : Yes
Format settings, RefFrames : 3 frames
Codec ID : V_MPEG4/ISO/AVC
Duration : 13 min 37 s
Bit rate mode : Variable
Bit rate : 3 002 kb/s
Nominal bit rate : 3 480 kb/s
Maximum bit rate : 5 220 kb/s
Width : 1 280 pixels
Height : 720 pixels
Display aspect ratio : 16:9
Frame rate mode : Constant
Frame rate : 23.976 (24000/1001) FPS
Color space : YUV
Chroma subsampling : 4:2:0
Bit depth : 8 bits
Scan type : Progressive
Bits/(Pixel*Frame) : 0.136
Stream size : 293 MiB (89%)
Writing library : x264 core 118
Encoding settings : cabac=1 / ref=3 / deblock=1:0:0 / analyse=0x1:0x111 / me=umh / subme=10 / psy=1 / psy_rd=1.00:0.00 / mixed_ref=1 / me_range=24 / chroma_me=1 / trellis=2 / 8x8dct=0 / cqm=0 / deadzone=21,11 / fast_pskip=1 / chroma_qp_offset=-2 / threads=8 / sliced_threads=0 / nr=0 / decimate=1 / interlaced=0 / bluray_compat=0 / constrained_intra=0 / bframes=2 / b_pyramid=0 / b_adapt=2 / b_bias=0 / direct=3 / weightb=1 / open_gop=0 / weightp=2 / keyint=48 / keyint_min=25 / scenecut=0 / intra_refresh=0 / rc_lookahead=0 / rc=2pass / mbtree=1 / bitrate=3480 / ratetol=1.0 / qcomp=0.50 / qpmin=6 / qpmax=51 / qpstep=4 / cplxblur=20.0 / qblur=0.5 / vbv_maxrate=5220 / vbv_bufsize=6960 / nal_hrd=vbr / ip_ratio=1.40 / aq=1:1.00
Default : Yes
Forced : No

Audio
ID : 2
Format : AC-3
Format/Info : Audio Coding 3
Format settings, Endianness : Big
Codec ID : A_AC3
Duration : 13 min 37 s
Bit rate mode : Constant
Bit rate : 384 kb/s
Channel(s) : 6 channels
Channel positions : Front: L C R, Side: L R, LFE
Sampling rate : 48.0 kHz
Frame rate : 31.250 FPS (1536 SPF)
Bit depth : 16 bits
Compression mode : Lossy
Stream size : 37.4 MiB (11%)
Language : English
Service kind : Complete Main
Default : Yes
Forced : No

Text #1
ID : 3
Format : UTF-8
Codec ID : S_TEXT/UTF8
Codec ID/Info : UTF-8 Plain Text
Duration : 11 min 7 s
Bit rate : 103 b/s
Count of elements : 247
Stream size : 8.40 KiB (0%)
Language : English
Default : No
Forced : No

Text #2
ID : 4
Format : UTF-8
Codec ID : S_TEXT/UTF8
Codec ID/Info : UTF-8 Plain Text
Duration : 11 min 23 s
Bit rate : 72 b/s
Count of elements : 155
Stream size : 6.05 KiB (0%)
Language : Dutch
Default : No
Forced : No

Text #3
ID : 5
Format : UTF-8
Codec ID : S_TEXT/UTF8
Codec ID/Info : UTF-8 Plain Text
Duration : 11 min 6 s
Bit rate : 78 b/s
Count of elements : 194
Stream size : 6.42 KiB (0%)
Title : European
Language : Spanish
Default : No
Forced : No

Text #4
ID : 6
Format : UTF-8
Codec ID : S_TEXT/UTF8
Codec ID/Info : UTF-8 Plain Text
Duration : 11 min 23 s
Bit rate : 80 b/s
Count of elements : 193
Stream size : 6.75 KiB (0%)
Language : French
Default : No
Forced : No

Text #5
ID : 7
Format : UTF-8
Codec ID : S_TEXT/UTF8
Codec ID/Info : UTF-8 Plain Text
Duration : 11 min 23 s
Bit rate : 83 b/s
Count of elements : 173
Stream size : 6.99 KiB (0%)
Language : German
Default : No
Forced : No





Buddy Thunderstruck S01E12


Buddy Thunderstruck S01E12


Buddy Thunderstruck S01E12


Buddy Thunderstruck S01E12


Buddy Thunderstruck S01E12

All episodes